  0
SECTION
  2
HEADER
  9
$ACADVER
  1
AC1015
  9
$ACADMAINTVER
 70
    20
  9
$DWGCODEPAGE
  3
ANSI_1252
  9
$INSBASE
 10
0.0
 20
0.0
 30
0.0
  9
$EXTMIN
 10
44.56503762155786
 20
67.909592
 30
0.0
  9
$EXTMAX
 10
176.5
 20
317.9004745972891
 30
0.0
  9
$LIMMIN
 10
0.0
 20
0.0
  9
$LIMMAX
 10
420.0
 20
297.0
  9
$ORTHOMODE
 70
     1
  9
$REGENMODE
 70
     1
  9
$FILLMODE
 70
     1
  9
$QTEXTMODE
 70
     0
  9
$MIRRTEXT
 70
     1
  9
$LTSCALE
 40
1.0
  9
$ATTMODE
 70
     1
  9
$TEXTSIZE
 40
0.0
  9
$TRACEWID
 40
1.0
  9
$TEXTSTYLE
  7
Standard
  9
$CLAYER
  8
0
  9
$CELTYPE
  6
ByLayer
  9
$CECOLOR
 62
     5
  9
$CELTSCALE
 40
1.0
  9
$DISPSILH
 70
     0
  9
$DIMSCALE
 40
1.0
  9
$DIMASZ
 40
2.5
  9
$DIMEXO
 40
0.625
  9
$DIMDLI
 40
3.75
  9
$DIMRND
 40
0.0
  9
$DIMDLE
 40
0.0
  9
$DIMEXE
 40
1.25
  9
$DIMTP
 40
0.0
  9
$DIMTM
 40
0.0
  9
$DIMTXT
 40
2.5
  9
$DIMCEN
 40
2.5
  9
$DIMTSZ
 40
0.0
  9
$DIMTOL
 70
     0
  9
$DIMLIM
 70
     0
  9
$DIMTIH
 70
     0
  9
$DIMTOH
 70
     0
  9
$DIMSE1
 70
     0
  9
$DIMSE2
 70
     0
  9
$DIMTAD
 70
     1
  9
$DIMZIN
 70
     8
  9
$DIMBLK
  1

  9
$DIMASO
 70
     1
  9
$DIMSHO
 70
     1
  9
$DIMPOST
  1

  9
$DIMAPOST
  1

  9
$DIMALT
 70
     0
  9
$DIMALTD
 70
     3
  9
$DIMALTF
 40
0.03937
  9
$DIMLFAC
 40
1.0
  9
$DIMTOFL
 70
     1
  9
$DIMTVP
 40
0.0
  9
$DIMTIX
 70
     0
  9
$DIMSOXD
 70
     0
  9
$DIMSAH
 70
     0
  9
$DIMBLK1
  1

  9
$DIMBLK2
  1

  9
$DIMSTYLE
  2
Standard
  9
$DIMCLRD
 70
     0
  9
$DIMCLRE
 70
     0
  9
$DIMCLRT
 70
     0
  9
$DIMTFAC
 40
1.0
  9
$DIMGAP
 40
0.625
  9
$DIMJUST
 70
     0
  9
$DIMSD1
 70
     0
  9
$DIMSD2
 70
     0
  9
$DIMTOLJ
 70
     0
  9
$DIMTZIN
 70
     8
  9
$DIMALTZ
 70
     0
  9
$DIMALTTZ
 70
     0
  9
$DIMUPT
 70
     0
  9
$DIMDEC
 70
     2
  9
$DIMTDEC
 70
     2
  9
$DIMALTU
 70
     2
  9
$DIMALTTD
 70
     3
  9
$DIMTXSTY
  7
Standard
  9
$DIMAUNIT
 70
     0
  9
$DIMADEC
 70
     0
  9
$DIMALTRND
 40
0.0
  9
$DIMAZIN
 70
     0
  9
$DIMDSEP
 70
    44
  9
$DIMATFIT
 70
     0
  9
$DIMFRAC
 70
     0
  9
$DIMLDRBLK
  1

  9
$DIMLUNIT
 70
     2
  9
$DIMLWD
 70
    -2
  9
$DIMLWE
 70
    -2
  9
$DIMTMOVE
 70
     0
  9
$LUNITS
 70
     2
  9
$LUPREC
 70
     4
  9
$SKETCHINC
 40
1.0
  9
$FILLETRAD
 40
2.5
  9
$AUNITS
 70
     0
  9
$AUPREC
 70
     0
  9
$MENU
  1
.
  9
$ELEVATION
 40
0.0
  9
$PELEVATION
 40
0.0
  9
$THICKNESS
 40
0.0
  9
$LIMCHECK
 70
     0
  9
$CHAMFERA
 40
2.5
  9
$CHAMFERB
 40
2.5
  9
$CHAMFERC
 40
0.0
  9
$CHAMFERD
 40
0.0
  9
$SKPOLY
 70
     0
  9
$TDCREATE
 40
2455384.611461088
  9
$TDUCREATE
 40
2455384.569794421
  9
$TDUPDATE
 40
2455510.647906007
  9
$TDUUPDATE
 40
2455510.606239340
  9
$TDINDWG
 40
0.0859131481
  9
$TDUSRTIMER
 40
0.0859122569
  9
$USRTIMER
 70
     1
  9
$ANGBASE
 50
0.0
  9
$ANGDIR
 70
     0
  9
$PDMODE
 70
     0
  9
$PDSIZE
 40
0.0
  9
$PLINEWID
 40
0.0
  9
$SPLFRAME
 70
     0
  9
$SPLINETYPE
 70
     6
  9
$SPLINESEGS
 70
     8
  9
$HANDSEED
  5
DBE
  9
$SURFTAB1
 70
     6
  9
$SURFTAB2
 70
     6
  9
$SURFTYPE
 70
     6
  9
$SURFU
 70
     6
  9
$SURFV
 70
     6
  9
$UCSBASE
  2

  9
$UCSNAME
  2

  9
$UCSORG
 10
0.0
 20
0.0
 30
0.0
  9
$UCSXDIR
 10
1.0
 20
0.0
 30
0.0
  9
$UCSYDIR
 10
0.0
 20
1.0
 30
0.0
  9
$UCSORTHOREF
  2

  9
$UCSORTHOVIEW
 70
     1
  9
$UCSORGTOP
 10
0.0
 20
0.0
 30
0.0
  9
$UCSORGBOTTOM
 10
0.0
 20
0.0
 30
0.0
  9
$UCSORGLEFT
 10
0.0
 20
0.0
 30
0.0
  9
$UCSORGRIGHT
 10
0.0
 20
0.0
 30
0.0
  9
$UCSORGFRONT
 10
0.0
 20
0.0
 30
0.0
  9
$UCSORGBACK
 10
0.0
 20
0.0
 30
0.0
  9
$PUCSBASE
  2

  9
$PUCSNAME
  2

  9
$PUCSORG
 10
0.0
 20
0.0
 30
0.0
  9
$PUCSXDIR
 10
1.0
 20
0.0
 30
0.0
  9
$PUCSYDIR
 10
0.0
 20
1.0
 30
0.0
  9
$PUCSORTHOREF
  2

  9
$PUCSORTHOVIEW
 70
     0
  9
$PUCSORGTOP
 10
0.0
 20
0.0
 30
0.0
  9
$PUCSORGBOTTOM
 10
0.0
 20
0.0
 30
0.0
  9
$PUCSORGLEFT
 10
0.0
 20
0.0
 30
0.0
  9
$PUCSORGRIGHT
 10
0.0
 20
0.0
 30
0.0
  9
$PUCSORGFRONT
 10
0.0
 20
0.0
 30
0.0
  9
$PUCSORGBACK
 10
0.0
 20
0.0
 30
0.0
  9
$USERI1
 70
     0
  9
$USERI2
 70
     0
  9
$USERI3
 70
     0
  9
$USERI4
 70
     0
  9
$USERI5
 70
     0
  9
$USERR1
 40
0.0
  9
$USERR2
 40
0.0
  9
$USERR3
 40
0.0
  9
$USERR4
 40
0.0
  9
$USERR5
 40
0.0
  9
$WORLDVIEW
 70
     1
  9
$SHADEDGE
 70
     3
  9
$SHADEDIF
 70
    70
  9
$TILEMODE
 70
     1
  9
$MAXACTVP
 70
    48
  9
$PINSBASE
 10
0.0
 20
0.0
 30
0.0
  9
$PLIMCHECK
 70
     0
  9
$PEXTMIN
 10
0.0
 20
0.0
 30
0.0
  9
$PEXTMAX
 10
176.5
 20
287.909607
 30
2.0
  9
$PLIMMIN
 10
0.0
 20
0.0
  9
$PLIMMAX
 10
420.0
 20
297.0
  9
$UNITMODE
 70
     0
  9
$VISRETAIN
 70
     0
  9
$PLINEGEN
 70
     0
  9
$PSLTSCALE
 70
     1
  9
$TREEDEPTH
 70
  3020
  9
$CMLSTYLE
  2
Standard
  9
$CMLJUST
 70
     0
  9
$CMLSCALE
 40
20.0
  9
$PROXYGRAPHICS
 70
     1
  9
$MEASUREMENT
 70
     1
  9
$CELWEIGHT
370
    -1
  9
$ENDCAPS
280
     0
  9
$JOINSTYLE
280
     0
  9
$LWDISPLAY
290
     0
  9
$INSUNITS
 70
     0
  9
$HYPERLINKBASE
  1

  9
$STYLESHEET
  1

  9
$XEDIT
290
     1
  9
$CEPSNTYPE
380
     0
  9
$PSTYLEMODE
290
     0
  9
$FINGERPRINTGUID
  2

  9
$VERSIONGUID
  2
{011370CA-F430-4B2F-9D16-383917A625A0}
  9
$EXTNAMES
290
     0
  9
$PSVPSCALE
 40
0.0
  9
$OLESTARTUP
290
     0
  0
ENDSEC
  0
SECTION
  2
CLASSES
  0
CLASS
  1
IMAGE
  2
AcDbRasterImage
  3
ISM
 90
    34943
280
     0
281
     1
  0
CLASS
  1
DICTIONARYVAR
  2
AcDbDictionaryVar
  3
ObjectDBX Classes
 90
        0
280
     0
281
     0
  0
CLASS
  1
RASTERVARIABLES
  2
AcDbRasterVariables
  3
ISM
 90
    32768
280
     0
281
     0
  0
CLASS
  1
IMAGEDEF
  2
AcDbRasterImageDef
  3
ISM
 90
    32768
280
     0
281
     0
  0
CLASS
  1
IMAGEDEF_REACTOR
  2
AcDbRasterImageDefReactor
  3
ISM
 90
    32769
280
     0
281
     0
  0
CLASS
  1
IDBUFFER
  2
AcDbIdBuffer
  3
ObjectDBX Classes
 90
    32768
280
     0
281
     0
  0
CLASS
  1
SPATIAL_FILTER
  2
AcDbSpatialFilter
  3
ObjectDBX Classes
 90
    32768
280
     0
281
     0
  0
CLASS
  1
SORTENTSTABLE
  2
AcDbSortentsTable
  3
ObjectDBX Classes
 90
        0
280
     0
281
     0
  0
CLASS
  1
LAYER_INDEX
  2
AcDbLayerIndex
  3
ObjectDBX Classes
 90
    32768
280
     0
281
     0
  0
CLASS
  1
SPATIAL_INDEX
  2
AcDbSpatialIndex
  3
ObjectDBX Classes
 90
    32768
280
     0
281
     0
  0
CLASS
  1
OBJECT_PTR
  2
CAseDLPNTableRecord
  3
"ASE-LPNTableRecord"
 90
    32769
280
     0
281
     0
  0
CLASS
  1
LAYOUT
  2
AcDbLayout
  3
ObjectDBX Classes
 90
        0
280
     0
281
     0
  0
CLASS
  1
PLOTSETTINGS
  2
AcDbPlotSettings
  3
ObjectDBX Classes
 90
    32768
280
     0
281
     0
  0
CLASS
  1
ACDBDICTIONARYWDFLT
  2
AcDbDictionaryWithDefault
  3
ObjectDBX Classes
 90
        0
280
     0
281
     0
  0
CLASS
  1
ACDBPLACEHOLDER
  2
AcDbPlaceHolder
  3
ObjectDBX Classes
 90
        0
280
     0
281
     0
  0
CLASS
  1
VBA_PROJECT
  2
AcDbVbaProject
  3
acad
 90
    32768
280
     0
281
     0
  0
CLASS
  1
WIPEOUT
  2
AcDbWipeout
  3
"WipeOut|Product Desc: Object Enabler for WipeOut entity                        |Company: Autodesk, Inc.                        |WEB Address: www.autodesk.com"
 90
    34943
280
     0
281
     1
  0
CLASS
  1
WIPEOUTVARIABLES
  2
AcDbWipeoutVariables
  3
"WipeOut|Product Desc:     WipeOut Dbx Application|Company:          Autodesk, Inc.|WEB Address:      www.autodesk.com"
 90
        0
280
     0
281
     0
  0
CLASS
  1
RTEXT
  2
RText
  3
RText|AutoCAD Express Tool|expresstools@autodesk.com
 90
    32768
280
     0
281
     1
  0
CLASS
  1
ARCALIGNEDTEXT
  2
AcDbArcAlignedText
  3
ATEXT|AutoCAD Express Tool|expresstools@autodesk.com
 90
    32768
280
     0
281
     1
  0
CLASS
  1
MATERIAL
  2
AcDbMaterial
  3
ObjectDBX Classes
 90
     1153
280
     0
281
     0
  0
CLASS
  1
VISUALSTYLE
  2
AcDbVisualStyle
  3
ObjectDBX Classes
 90
     4095
280
     0
281
     0
  0
CLASS
  1
TABLESTYLE
  2
AcDbTableStyle
  3
ObjectDBX Classes
 90
     4095
280
     0
281
     0
  0
CLASS
  1
SCALE
  2
AcDbScale
  3
ObjectDBX Classes
 90
     1153
280
     0
281
     0
  0
CLASS
  1
MLEADERSTYLE
  2
AcDbMLeaderStyle
  3
ACDB_MLEADERSTYLE_CLASS
 90
     4095
280
     0
281
     0
  0
CLASS
  1
CELLSTYLEMAP
  2
AcDbCellStyleMap
  3
ObjectDBX Classes
 90
     1152
280
     0
281
     0
  0
ENDSEC
  0
SECTION
  2
TABLES
  0
TABLE
  2
VPORT
  5
7
330
0
100
AcDbSymbolTable
 70
     1
  0
VPORT
  5
15
330
7
100
AcDbSymbolTableRecord
100
AcDbViewportTableRecord
  2
*ACTIVE
 70
     0
 10
0.0
 20
0.0
 11
1.0
 21
1.0
 12
180.3810093519964
 22
240.9226407063393
 13
0.0
 23
0.0
 14
1.0
 24
1.0
 15
0.0
 25
0.0
 16
0.0
 26
0.0
 36
1.0
 17
0.0
 27
0.0
 37
0.0
 40
548.7363482422706
 41
1.148760330578512
 42
50.0
 43
0.0
 44
0.0
 50
0.0
 51
0.0
 71
     0
 72
   100
 73
     1
 74
     1
 75
     0
 76
     0
 77
     0
 78
     0
281
     0
 65
     0
110
0.0
120
0.0
130
0.0
111
1.0
121
0.0
131
0.0
112
0.0
122
1.0
132
0.0
 79
     0
146
0.0
  0
ENDTAB
  0
TABLE
  2
LTYPE
  5
4
330
0
100
AcDbSymbolTable
 70
     2
  0
LTYPE
  5
11
330
4
100
AcDbSymbolTableRecord
100
AcDbLinetypeTableRecord
  2
ByBlock
 70
     0
  3

 72
    65
 73
     0
 40
0.0
  0
LTYPE
  5
12
330
4
100
AcDbSymbolTableRecord
100
AcDbLinetypeTableRecord
  2
ByLayer
 70
     0
  3

 72
    65
 73
     0
 40
0.0
  0
LTYPE
  5
13
330
4
100
AcDbSymbolTableRecord
100
AcDbLinetypeTableRecord
  2
Continuous
 70
     0
  3
Solid line
 72
    65
 73
     0
 40
0.0
  0
LTYPE
  5
24
330
4
100
AcDbSymbolTableRecord
100
AcDbLinetypeTableRecord
  2
DASHDOT
 70
     0
  3
 __ . __ . __ . __ . __ . __ . __ . 
 72
    65
 73
     4
 40
18.5
 49
12.0
 74
     0
 49
-3.0
 74
     0
 49
0.5
 74
     0
 49
-3.0
 74
     0
  0
ENDTAB
  0
TABLE
  2
LAYER
  5
2
330
0
100
AcDbSymbolTable
 70
     2
  0
LAYER
  5
14
102
{ACAD_XDICTIONARY
360
A55
102
}
330
2
100
AcDbSymbolTableRecord
100
AcDbLayerTableRecord
  2
0
 70
     0
 62
     7
  6
Continuous
370
    -3
390
1D
  0
LAYER
  5
9C1
330
2
100
AcDbSymbolTableRecord
100
AcDbLayerTableRecord
  2
Defpoints
 70
     0
 62
     7
  6
Continuous
290
     0
370
    -3
390
1D
  0
ENDTAB
  0
TABLE
  2
STYLE
  5
3
330
0
100
AcDbSymbolTable
 70
     2
  0
STYLE
  5
17
330
3
100
AcDbSymbolTableRecord
100
AcDbTextStyleTableRecord
  2
Standard
 70
     0
 40
0.0
 41
1.0
 50
0.0
 71
     0
 42
0.0
  3
txt
  4

  0
STYLE
  5
A42
330
3
100
AcDbSymbolTableRecord
100
AcDbTextStyleTableRecord
  2
ZD
 70
     0
 40
0.0
 41
1.0
 50
0.0
 71
     0
 42
3.0
  3
SIMPLEX
  4

  0
ENDTAB
  0
TABLE
  2
VIEW
  5
5
330
0
100
AcDbSymbolTable
 70
     0
  0
ENDTAB
  0
TABLE
  2
UCS
  5
6
330
0
100
AcDbSymbolTable
 70
     0
  0
ENDTAB
  0
TABLE
  2
APPID
  5
8
330
0
100
AcDbSymbolTable
 70
     6
  0
APPID
  5
16
330
8
100
AcDbSymbolTableRecord
100
AcDbRegAppTableRecord
  2
ACAD
 70
     0
  0
APPID
  5
9BA
330
8
100
AcDbSymbolTableRecord
100
AcDbRegAppTableRecord
  2
ACAD_MLEADERVER
 70
     0
  0
APPID
  5
9EE
330
8
100
AcDbSymbolTableRecord
100
AcDbRegAppTableRecord
  2
ACAD_EXEMPT_FROM_CAD_STANDARDS
 70
     0
  0
APPID
  5
A44
330
8
100
AcDbSymbolTableRecord
100
AcDbRegAppTableRecord
  2
AcadAnnotative
 70
     0
  0
APPID
  5
A45
330
8
100
AcDbSymbolTableRecord
100
AcDbRegAppTableRecord
  2
ACAD_DSTYLE_DIMJAG
 70
     0
  0
APPID
  5
A46
330
8
100
AcDbSymbolTableRecord
100
AcDbRegAppTableRecord
  2
ACAD_DSTYLE_DIMTALN
 70
     0
  0
ENDTAB
  0
TABLE
  2
DIMSTYLE
  5
9
330
0
100
AcDbSymbolTable
 70
     2
100
AcDbDimStyleTable
 71
     1
340
18
  0
DIMSTYLE
105
18
102
{ACAD_REACTORS
330
D17
330
D48
102
}
330
9
100
AcDbSymbolTableRecord
100
AcDbDimStyleTableRecord
  2
Standard
 70
     0
340
17
  0
DIMSTYLE
105
A43
330
9
100
AcDbSymbolTableRecord
100
AcDbDimStyleTableRecord
  2
Annotativa
 70
     0
 40
0.0
340
17
1001
AcadAnnotative
1000
AnnotativeData
1002
{
1070
     1
1070
     1
1002
}
1001
ACAD_DSTYLE_DIMJAG
1070
   388
1040
1.5
1001
ACAD_DSTYLE_DIMTALN
1070
   392
1070
     0
  0
ENDTAB
  0
TABLE
  2
BLOCK_RECORD
  5
1
330
0
100
AcDbSymbolTable
 70
     4
  0
BLOCK_RECORD
  5
A
102
{ACAD_XDICTIONARY
360
AA3
102
}
330
1
100
AcDbSymbolTableRecord
100
AcDbBlockTableRecord
  2
*MODEL_SPACE
340
20
  0
BLOCK_RECORD
  5
B
330
1
100
AcDbSymbolTableRecord
100
AcDbBlockTableRecord
  2
*PAPER_SPACE
340
21
  0
BLOCK_RECORD
  5
9C2
330
1
100
AcDbSymbolTableRecord
100
AcDbBlockTableRecord
  2
*D0
340
0
  0
BLOCK_RECORD
  5
9CF
330
1
100
AcDbSymbolTableRecord
100
AcDbBlockTableRecord
  2
*D1
340
0
  0
BLOCK_RECORD
  5
D18
330
1
100
AcDbSymbolTableRecord
100
AcDbBlockTableRecord
  2
*D2
340
0
  0
BLOCK_RECORD
  5
D49
330
1
100
AcDbSymbolTableRecord
100
AcDbBlockTableRecord
  2
*D3
340
0
  0
ENDTAB
  0
ENDSEC
  0
SECTION
  2
BLOCKS
  0
BLOCK
  5
D
330
A
100
AcDbEntity
  8
0
100
AcDbBlockBegin
  2
*MODEL_SPACE
 70
     0
 10
0.0
 20
0.0
 30
0.0
  3
*MODEL_SPACE
  1

  0
ENDBLK
  5
E
330
A
100
AcDbEntity
  8
0
100
AcDbBlockEnd
  0
BLOCK
  5
F
330
B
100
AcDbEntity
 67
     1
  8
0
100
AcDbBlockBegin
  2
*PAPER_SPACE
 70
     0
 10
0.0
 20
0.0
 30
0.0
  3
*PAPER_SPACE
  1

  0
ENDBLK
  5
10
330
B
100
AcDbEntity
 67
     1
  8
0
100
AcDbBlockEnd
  0
BLOCK
  5
9C3
330
9C2
100
AcDbEntity
  8
0
100
AcDbBlockBegin
  2
*D0
 70
     1
 10
0.0
 20
0.0
 30
0.0
  3
*D0
  1

  0
LINE
  5
9C5
330
9C2
100
AcDbEntity
  8
0
 62
     0
370
    -2
100
AcDbLine
 10
73.5
 20
236.1884971539051
 30
0.0
 11
73.5
 21
305.4539856473163
 31
0.0
  0
LINE
  5
9C6
330
9C2
100
AcDbEntity
  8
0
 62
     0
370
    -2
100
AcDbLine
 10
176.5
 20
236.1884971539051
 30
0.0
 11
176.5
 21
305.4539856473163
 31
0.0
  0
LINE
  5
9C7
330
9C2
100
AcDbEntity
  8
0
 62
     0
370
    -2
100
AcDbLine
 10
76.0
 20
304.2039856473162
 30
0.0
 11
174.0
 21
304.2039856473162
 31
0.0
  0
SOLID
  5
9C8
330
9C2
100
AcDbEntity
  8
0
 62
     0
100
AcDbTrace
 10
76.0
 20
304.6206523139829
 30
0.0
 11
76.0
 21
303.7873189806496
 31
0.0
 12
73.5
 22
304.2039856473162
 32
0.0
 13
73.5
 23
304.2039856473162
 33
0.0
  0
SOLID
  5
9C9
330
9C2
100
AcDbEntity
  8
0
 62
     0
100
AcDbTrace
 10
174.0
 20
304.6206523139829
 30
0.0
 11
174.0
 21
303.7873189806496
 31
0.0
 12
176.5
 22
304.2039856473162
 32
0.0
 13
176.5
 23
304.2039856473162
 33
0.0
  0
MTEXT
  5
9CA
330
9C2
100
AcDbEntity
  8
0
 62
     0
100
AcDbMText
 10
125.0
 20
306.0789856473162
 30
0.0
 40
2.5
 41
0.0
 71
     5
 72
     1
  1
103
 73
     1
 44
1.0
1001
ACAD
1000
MTEXTBEGIN
1070
    73
1070
     1
1070
    44
1040
1.0
1070
    74
1070
     0
1000
MTEXTEND
  0
POINT
  5
9CB
330
9C2
100
AcDbEntity
  8
Defpoints
 62
     0
100
AcDbPoint
 10
73.5
 20
235.5634971539051
 30
0.0
  0
POINT
  5
9CC
330
9C2
100
AcDbEntity
  8
Defpoints
 62
     0
100
AcDbPoint
 10
176.5
 20
235.5634971539051
 30
0.0
  0
POINT
  5
9CD
330
9C2
100
AcDbEntity
  8
Defpoints
 62
     0
100
AcDbPoint
 10
176.5
 20
304.2039856473162
 30
0.0
  0
ENDBLK
  5
9C4
330
9C2
100
AcDbEntity
  8
0
100
AcDbBlockEnd
  0
BLOCK
  5
9D0
330
9CF
100
AcDbEntity
  8
0
100
AcDbBlockBegin
  2
*D1
 70
     1
 10
0.0
 20
0.0
 30
0.0
  3
*D1
  1

  0
LINE
  5
9D2
330
9CF
100
AcDbEntity
  8
0
 62
     0
370
    -2
100
AcDbLine
 10
147.3657775777867
 20
287.909607
 30
0.0
 11
202.7616631939812
 21
287.909607
 31
0.0
  0
LINE
  5
9D3
330
9CF
100
AcDbEntity
  8
0
 62
     0
370
    -2
100
AcDbLine
 10
147.3657775777867
 20
67.909592
 30
0.0
 11
202.7616631939812
 21
67.90959199999999
 31
0.0
  0
LINE
  5
9D4
330
9CF
100
AcDbEntity
  8
0
 62
     0
370
    -2
100
AcDbLine
 10
201.5116631939812
 20
285.409607
 30
0.0
 11
201.5116631939811
 21
70.40959199999997
 31
0.0
  0
SOLID
  5
9D5
330
9CF
100
AcDbEntity
  8
0
 62
     0
100
AcDbTrace
 10
201.0949965273145
 20
285.409607
 30
0.0
 11
201.9283298606478
 21
285.409607
 31
0.0
 12
201.5116631939812
 22
287.909607
 32
0.0
 13
201.5116631939812
 23
287.909607
 33
0.0
  0
SOLID
  5
9D6
330
9CF
100
AcDbEntity
  8
0
 62
     0
100
AcDbTrace
 10
201.0949965273145
 20
70.40959199999997
 30
0.0
 11
201.9283298606478
 21
70.40959199999997
 31
0.0
 12
201.5116631939811
 22
67.90959199999999
 32
0.0
 13
201.5116631939811
 23
67.90959199999999
 33
0.0
  0
MTEXT
  5
9D7
330
9CF
100
AcDbEntity
  8
0
 62
     0
100
AcDbMText
 10
199.6366631939811
 20
177.9095995
 30
0.0
 40
2.5
 41
0.0
 71
     5
 72
     1
  1
220
 11
0.0000000000000001
 21
1.0
 31
0.0
 73
     1
 44
1.0
1001
ACAD
1000
MTEXTBEGIN
1070
    73
1070
     1
1070
    44
1040
1.0
1070
    74
1070
     0
1000
MTEXTEND
  0
POINT
  5
9D8
330
9CF
100
AcDbEntity
  8
Defpoints
 62
     0
100
AcDbPoint
 10
146.7407775777867
 20
287.909607
 30
0.0
  0
POINT
  5
9D9
330
9CF
100
AcDbEntity
  8
Defpoints
 62
     0
100
AcDbPoint
 10
146.7407775777867
 20
67.909592
 30
0.0
  0
POINT
  5
9DA
330
9CF
100
AcDbEntity
  8
Defpoints
 62
     0
100
AcDbPoint
 10
201.5116631939811
 20
67.90959199999999
 30
0.0
  0
ENDBLK
  5
9D1
330
9CF
100
AcDbEntity
  8
0
100
AcDbBlockEnd
  0
BLOCK
  5
D19
330
D18
100
AcDbEntity
  8
0
 62
     5
100
AcDbBlockBegin
  2
*D2
 70
     1
 10
0.0
 20
0.0
 30
0.0
  3
*D2
  1

  0
LINE
  5
D97
330
D18
100
AcDbEntity
  8
0
 62
     0
370
    -2
100
AcDbLine
 10
82.87499947640119
 20
287.909607
 30
0.0
 11
53.9400376215579
 21
287.909607
 31
0.0
  0
LINE
  5
D98
330
D18
100
AcDbEntity
  8
0
 62
     0
370
    -2
100
AcDbLine
 10
82.87499947640119
 20
67.909592
 30
0.0
 11
53.94003762155785
 21
67.909592
 31
0.0
  0
LINE
  5
D99
330
D18
100
AcDbEntity
  8
0
 62
     7
370
    -2
100
AcDbLine
 10
55.1900376215579
 20
277.909607
 30
0.0
 11
55.19003762155787
 21
191.0345995
 31
0.0
  0
LINE
  5
D9A
330
D18
100
AcDbEntity
  8
0
 62
     7
370
    -2
100
AcDbLine
 10
55.19003762155785
 20
77.909592
 30
0.0
 11
55.19003762155787
 21
164.7845995
 31
0.0
  0
SOLID
  5
D9B
330
D18
100
AcDbEntity
  8
0
 62
     7
100
AcDbTrace
 10
53.52337095489123
 20
277.909607
 30
0.0
 11
56.85670428822456
 21
277.909607
 31
0.0
 12
55.1900376215579
 22
287.909607
 32
0.0
 13
55.1900376215579
 23
287.909607
 33
0.0
  0
SOLID
  5
D9C
330
D18
100
AcDbEntity
  8
0
 62
     7
100
AcDbTrace
 10
53.52337095489119
 20
77.909592
 30
0.0
 11
56.85670428822451
 21
77.909592
 31
0.0
 12
55.19003762155785
 22
67.909592
 32
0.0
 13
55.19003762155785
 23
67.909592
 33
0.0
  0
MTEXT
  5
D9D
330
D18
100
AcDbEntity
  8
0
 62
     7
100
AcDbMText
 10
55.19003762155785
 20
177.9095995
 30
0.0
 40
10.0
 41
0.0
 71
     5
 72
     1
  1
220
 11
0.0000000000000001
 21
1.0
 31
0.0
 73
     1
 44
1.0
1001
ACAD
1000
MTEXTBEGIN
1070
    73
1070
     1
1070
    44
1040
1.0
1070
    74
1070
     0
1000
MTEXTEND
  0
POINT
  5
D9E
330
D18
100
AcDbEntity
  8
Defpoints
 62
     0
100
AcDbPoint
 10
83.49999947640119
 20
287.909607
 30
0.0
  0
POINT
  5
D9F
330
D18
100
AcDbEntity
  8
Defpoints
 62
     0
100
AcDbPoint
 10
83.49999947640119
 20
67.909592
 30
0.0
  0
POINT
  5
DA0
330
D18
100
AcDbEntity
  8
Defpoints
 62
     0
100
AcDbPoint
 10
55.19003762155785
 20
67.909592
 30
0.0
  0
ENDBLK
  5
D1A
330
D18
100
AcDbEntity
  8
0
 62
     5
100
AcDbBlockEnd
  0
BLOCK
  5
D4A
330
D49
100
AcDbEntity
  8
0
 62
     5
100
AcDbBlockBegin
  2
*D3
 70
     1
 10
0.0
 20
0.0
 30
0.0
  3
*D3
  1

  0
LINE
  5
DAB
330
D49
100
AcDbEntity
  8
0
 62
     0
370
    -2
100
AcDbLine
 10
73.50000000000003
 20
278.5346061273354
 30
0.0
 11
73.50000000000003
 21
308.525474597289
 31
0.0
  0
LINE
  5
DAC
330
D49
100
AcDbEntity
  8
0
 62
     0
370
    -2
100
AcDbLine
 10
176.5
 20
278.5346061273354
 30
0.0
 11
176.5
 21
308.525474597289
 31
0.0
  0
LINE
  5
DAD
330
D49
100
AcDbEntity
  8
0
 62
     7
370
    -2
100
AcDbLine
 10
83.50000000000003
 20
307.275474597289
 30
0.0
 11
113.5416666666667
 21
307.275474597289
 31
0.0
  0
LINE
  5
DAE
330
D49
100
AcDbEntity
  8
0
 62
     7
370
    -2
100
AcDbLine
 10
166.5
 20
307.275474597289
 30
0.0
 11
136.4583333333333
 21
307.275474597289
 31
0.0
  0
SOLID
  5
DAF
330
D49
100
AcDbEntity
  8
0
 62
     7
100
AcDbTrace
 10
83.50000000000003
 20
308.9421412639557
 30
0.0
 11
83.50000000000003
 21
305.6088079306223
 31
0.0
 12
73.50000000000003
 22
307.275474597289
 32
0.0
 13
73.50000000000003
 23
307.275474597289
 33
0.0
  0
SOLID
  5
DB0
330
D49
100
AcDbEntity
  8
0
 62
     7
100
AcDbTrace
 10
166.5
 20
308.9421412639557
 30
0.0
 11
166.5
 21
305.6088079306223
 31
0.0
 12
176.5
 22
307.275474597289
 32
0.0
 13
176.5
 23
307.275474597289
 33
0.0
  0
MTEXT
  5
DB1
330
D49
100
AcDbEntity
  8
0
 62
     7
100
AcDbMText
 10
125.0
 20
307.275474597289
 30
0.0
 40
10.0
 41
0.0
 71
     5
 72
     1
  1
103
 73
     1
 44
1.0
1001
ACAD
1000
MTEXTBEGIN
1070
    73
1070
     1
1070
    44
1040
1.0
1070
    74
1070
     0
1000
MTEXTEND
  0
POINT
  5
DB2
330
D49
100
AcDbEntity
  8
Defpoints
 62
     0
100
AcDbPoint
 10
73.50000000000003
 20
277.9096061273354
 30
0.0
  0
POINT
  5
DB3
330
D49
100
AcDbEntity
  8
Defpoints
 62
     0
100
AcDbPoint
 10
176.5
 20
277.9096061273354
 30
0.0
  0
POINT
  5
DB4
330
D49
100
AcDbEntity
  8
Defpoints
 62
     0
100
AcDbPoint
 10
176.5
 20
307.275474597289
 30
0.0
  0
ENDBLK
  5
D4B
330
D49
100
AcDbEntity
  8
0
 62
     5
100
AcDbBlockEnd
  0
ENDSEC
  0
SECTION
  2
ENTITIES
  0
ARC
  5
39
330
A
100
AcDbEntity
  8
0
 62
     7
370
    35
100
AcDbCircle
 10
83.48192671045261
 20
77.92024402309516
 30
0.0
 40
2.209084511907384
100
AcDbArc
 50
315.2211527464864
 51
226.0947274995649
  0
ARC
  5
42
330
A
100
AcDbEntity
  8
0
 62
     7
370
    35
100
AcDbCircle
 10
83.49999999999999
 20
77.909592
 30
0.0
 40
1.55
100
AcDbArc
 50
0.0
 51
180.000005
  0
LINE
  5
45
330
A
100
AcDbEntity
  8
0
 62
     7
 48
0.013478
370
    35
100
AcDbLine
 10
81.98413100000001
 20
74.256821
 30
0.0
 11
81.99099
 21
73.717743
 31
0.0
  0
ARC
  5
46
330
A
100
AcDbEntity
  8
0
 62
     7
370
    35
100
AcDbCircle
 10
81.73661
 20
74.260643
 30
0.0
 40
0.247294
100
AcDbArc
 50
359.114427
 51
30.245222
  0
LINE
  5
47
330
A
100
AcDbEntity
  8
0
 62
     7
 48
0.000226
370
    35
100
AcDbLine
 10
81.949997
 20
74.39409599999997
 30
0.0
 11
81.949997
 21
74.38507099999998
 31
0.0
  0
LINE
  5
48
330
A
100
AcDbEntity
  8
0
 62
     7
 48
0.016637
370
    35
100
AcDbLine
 10
81.949997
 20
75.059593
 30
0.0
 11
81.949997
 21
74.39409599999997
 31
0.0
  0
LINE
  5
49
330
A
100
AcDbEntity
  8
0
 62
     7
 48
0.037371
370
    13
100
AcDbLine
 10
80.45516199999999
 20
75.059593
 30
0.0
 11
81.949997
 21
75.059593
 31
0.0
  0
ARC
  5
4A
330
A
100
AcDbEntity
  8
0
 62
     7
370
    13
100
AcDbCircle
 10
80.45515400000002
 20
75.859779
 30
0.0
 40
0.800187
100
AcDbArc
 50
226.421799
 51
270.00079
  0
LINE
  5
4C
330
A
100
AcDbEntity
  8
0
 62
     7
 48
0.0075
370
    35
100
AcDbLine
 10
81.949997
 20
75.359589
 30
0.0
 11
81.949997
 21
75.059593
 31
0.0
  0
LINE
  5
4D
330
A
100
AcDbEntity
  8
0
 62
     7
 48
0.06375
370
    35
100
AcDbLine
 10
81.949997
 20
77.909592
 30
0.0
 11
81.949997
 21
75.359589
 31
0.0
  0
ARC
  5
55
330
A
100
AcDbEntity
  8
0
 62
     5
370
    13
100
AcDbCircle
 10
161.43576
 20
73.607124
 30
0.0
 40
0.9657519999999999
100
AcDbArc
 50
170.299033
 51
207.798892
  0
LINE
  5
58
330
A
100
AcDbEntity
  8
0
 62
     5
 48
0.126675
370
    13
100
AcDbLine
 10
161.338089
 20
78.76432
 30
0.0
 11
160.483826
 21
73.769859
 31
0.0
  0
ARC
  5
5B
330
A
100
AcDbEntity
  8
0
 62
     5
370
    13
100
AcDbCircle
 10
166.501022
 20
77.88134000000002
 30
0.0
 40
5.237837999999999
100
AcDbArc
 50
100.059403
 51
170.295017
  0
LINE
  5
5E
330
A
100
AcDbEntity
  8
0
 62
     5
 48
0.126625
370
    13
100
AcDbLine
 10
165.586136
 20
83.038605
 30
0.0
 11
170.573395
 21
83.922699
 31
0.0
  0
LINE
  5
61
330
A
100
AcDbEntity
  8
0
 62
     5
 48
0.001222
370
    13
100
AcDbLine
 10
170.573395
 20
83.922699
 30
0.0
 11
170.621704
 21
83.93006099999999
 31
0.0
  0
ARC
  5
65
330
A
100
AcDbEntity
  8
0
 62
     5
370
    13
100
AcDbCircle
 10
167.035706
 20
77.89011399999998
 30
0.0
 40
4.599483
100
AcDbArc
 50
354.16061
 51
359.642046
  0
LINE
  5
6F
330
A
100
AcDbEntity
  8
0
 62
     7
 48
0.006271
370
    13
100
AcDbLine
 10
168.348679
 20
271.990051
 30
0.0
 11
168.156525
 21
271.828827
 31
0.0
  0
ARC
  5
74
330
A
100
AcDbEntity
  8
0
 62
     7
370
    13
100
AcDbCircle
 10
154.185486
 20
273.332001
 30
0.0
 40
14.227286
100
AcDbArc
 50
354.587506
 51
356.610016
  0
ARC
  5
8D
330
A
100
AcDbEntity
  8
0
 62
     7
370
    13
100
AcDbCircle
 10
160.351715
 20
291.805603
 30
0.0
 40
14.32858
100
AcDbArc
 50
272.513944
 51
274.526548
  0
LINE
  5
8F
330
A
100
AcDbEntity
  8
0
 62
     7
 48
0.027251
370
    13
100
AcDbLine
 10
166.11145
 20
272.892181
 30
0.0
 11
166.11145
 21
273.982239
 31
0.0
  0
ARC
  5
90
330
A
100
AcDbEntity
  8
0
 62
     7
370
    13
100
AcDbCircle
 10
166.5
 20
277.909607
 30
0.0
 40
3.946538999999998
100
AcDbArc
 50
185.65005
 51
264.349956
  0
LINE
  5
91
330
A
100
AcDbEntity
  8
0
 62
     7
 48
0.027251
370
    13
100
AcDbLine
 10
161.48259
 20
277.521057
 30
0.0
 11
162.572632
 21
277.521057
 31
0.0
  0
ARC
  5
93
330
A
100
AcDbEntity
  8
0
 62
     7
370
    13
100
AcDbCircle
 10
180.3759
 20
271.762878
 30
0.0
 40
14.308426
100
AcDbArc
 50
175.47342
 51
177.488859
  0
LINE
  5
97
330
A
100
AcDbEntity
  8
0
 62
     7
 48
0.007474
370
    13
100
AcDbLine
 10
166.081879
 20
272.389771
 30
0.0
 11
166.274033
 21
272.160767
 31
0.0
  0
LINE
  5
A0
330
A
100
AcDbEntity
  8
0
 62
     7
 48
0.007474
370
    13
100
AcDbLine
 10
160.980164
 20
277.491455
 30
0.0
 11
160.75116
 21
277.683624
 31
0.0
  0
CIRCLE
  5
A5
330
A
100
AcDbEntity
  8
0
 62
     7
370
    35
100
AcDbCircle
 10
166.5
 20
277.909607
 30
0.0
 40
2.25
  0
LINE
  5
A6
330
A
100
AcDbEntity
  8
0
 62
     7
 48
0.047788
370
    35
100
AcDbLine
 10
168.156525
 20
271.828827
 30
0.0
 11
166.274033
 21
272.160767
 31
0.0
  0
LINE
  5
A9
330
A
100
AcDbEntity
  8
0
 62
     7
 48
0.047788
370
    35
100
AcDbLine
 10
160.419235
 20
279.566101
 30
0.0
 11
160.75116
 21
277.683624
 31
0.0
  0
LINE
  5
AA
330
A
100
AcDbEntity
  8
0
 62
     7
 48
0.006271
370
    13
100
AcDbLine
 10
160.419235
 20
279.566101
 30
0.0
 11
160.580475
 21
279.75827
 31
0.0
  0
ARC
  5
B0
330
A
100
AcDbEntity
  8
0
 62
     7
370
    13
100
AcDbCircle
 10
161.922409
 20
265.595093
 30
0.0
 40
14.227286
100
AcDbArc
 50
93.38998199999997
 51
95.41249699999999
  0
LINE
  5
B4
330
A
100
AcDbEntity
  8
0
 62
     7
 48
0.04884
370
    13
100
AcDbLine
 10
163.034668
 20
279.798126
 30
0.0
 11
161.081085
 21
279.798126
 31
0.0
  0
ARC
  5
B7
330
A
100
AcDbEntity
  8
0
 62
     7
370
    13
100
AcDbCircle
 10
166.5
 20
277.909607
 30
0.0
 40
3.946538999999998
100
AcDbArc
 50
298.589564
 51
151.410431
  0
LINE
  5
B8
330
A
100
AcDbEntity
  8
0
 62
     7
 48
0.04884
370
    13
100
AcDbLine
 10
168.38855
 20
274.444244
 30
0.0
 11
168.38855
 21
272.490662
 31
0.0
  0
ARC
  5
D9
330
A
100
AcDbEntity
  8
0
 62
     5
370
    13
100
AcDbCircle
 10
468.2641299999998
 20
328.653748
 30
0.0
 40
312.308493
100
AcDbArc
 50
188.618095
 51
189.541455
  0
ARC
  5
DB
330
A
100
AcDbEntity
  8
0
 62
     5
370
    13
100
AcDbCircle
 10
160.733719
 20
282.045837
 30
0.0
 40
1.265070999999998
100
AcDbArc
 50
121.972453
 51
188.665169
  0
LINE
  5
E6
330
A
100
AcDbEntity
  8
0
 62
     5
 48
0.160898
370
    13
100
AcDbLine
 10
166.5
 20
283.118652
 30
0.0
 11
160.064087
 21
283.118652
 31
0.0
  0
ARC
  5
E8
330
A
100
AcDbEntity
  8
0
 62
     5
370
    13
100
AcDbCircle
 10
166.50415
 20
278.030975
 30
0.0
 40
5.087844999999997
100
AcDbArc
 50
55.982191
 51
90.050553
  0
ARC
  5
EA
330
A
100
AcDbEntity
  8
0
 62
     5
370
    13
100
AcDbCircle
 10
166.518585
 20
277.773621
 30
0.0
 40
5.295637999999998
100
AcDbArc
 50
54.791839
 51
57.669814
  0
ARC
  5
EC
330
A
100
AcDbEntity
  8
0
 62
     5
370
    13
100
AcDbCircle
 10
166.580307
 20
277.883453
 30
0.0
 40
5.170319999999998
100
AcDbArc
 50
11.206185
 51
54.643337
  0
LINE
  5
EE
330
A
100
AcDbEntity
  8
0
 62
     5
 48
0.004137
370
    13
100
AcDbLine
 10
171.681702
 20
278.725403
 30
0.0
 11
171.6521
 21
278.888214
 31
0.0
  0
ARC
  5
F0
330
A
100
AcDbEntity
  8
0
 62
     5
370
    13
100
AcDbCircle
 10
166.901398
 20
277.918854
 30
0.0
 40
4.847855
100
AcDbArc
 50
0.6969870000000002
 51
9.576940999999999
  0
ARC
  5
F2
330
A
100
AcDbEntity
  8
0
 62
     5
370
    13
100
AcDbCircle
 10
-298.816437
 20
272.9887080000001
 30
0.0
 40
470.5917389999998
100
AcDbArc
 50
359.985733
 51
0.607424
  0
LINE
  5
F3
330
A
100
AcDbEntity
  8
0
 62
     5
 48
0.035903
370
    13
100
AcDbLine
 10
171.775299
 20
271.435394
 30
0.0
 11
171.775299
 21
272.871521
 31
0.0
  0
ARC
  5
107
330
A
100
AcDbEntity
  8
0
 62
     5
370
    13
100
AcDbCircle
 10
170.5
 20
272.127136
 30
0.0
 40
1.333649
100
AcDbArc
 50
259.999999
 51
261.645454
  0
LINE
  5
109
330
A
100
AcDbEntity
  8
0
 62
     5
 48
0.123584
370
    13
100
AcDbLine
 10
170.268417
 20
270.813751
 30
0.0
 11
165.400177
 21
271.67218
 31
0.0
  0
ARC
  5
10B
330
A
100
AcDbEntity
  8
0
 62
     5
370
    13
100
AcDbCircle
 10
166.5
 20
277.909607
 30
0.0
 40
6.333648999999997
100
AcDbArc
 50
232.697049
 51
259.999999
  0
ARC
  5
10C
330
A
100
AcDbEntity
  8
0
 62
     5
370
    13
100
AcDbCircle
 10
166.600464
 20
277.927673
 30
0.0
 40
6.409926999999997
100
AcDbArc
 50
189.36092
 51
232.08057
  0
ARC
  5
110
330
A
100
AcDbEntity
  8
0
 62
     5
370
    13
100
AcDbCircle
 10
82.96422599999997
 20
77.89010600000001
 30
0.0
 40
4.599421999999997
100
AcDbArc
 50
180.357911
 51
185.839424
  0
LINE
  5
111
330
A
100
AcDbEntity
  8
0
 62
     5
 48
0.141643
370
    13
100
AcDbLine
 10
78.364899
 20
77.861412
 30
0.0
 11
78.33107
 21
83.52703899999999
 31
0.0
  0
LINE
  5
11E
330
A
100
AcDbEntity
  8
0
 62
     5
 48
0.141164
370
    13
100
AcDbLine
 10
160.853424
 20
72.80216199999998
 30
0.0
 11
166.5
 21
72.80216199999998
 31
0.0
  0
ARC
  5
11F
330
A
100
AcDbEntity
  8
0
 62
     5
370
    13
100
AcDbCircle
 10
161.527832
 20
73.600166
 30
0.0
 40
1.04495
100
AcDbArc
 50
205.106268
 51
229.798645
  0
ARC
  5
121
330
A
100
AcDbEntity
  8
0
 62
     5
370
    13
100
AcDbCircle
 10
88.472176
 20
73.600166
 30
0.0
 40
1.04495
100
AcDbArc
 50
310.201354
 51
334.893727
  0
LINE
  5
122
330
A
100
AcDbEntity
  8
0
 62
     5
 48
0.141164
370
    13
100
AcDbLine
 10
83.49999999999999
 20
72.80216199999998
 30
0.0
 11
89.14656800000001
 21
72.80216199999998
 31
0.0
  0
LINE
  5
123
330
A
100
AcDbEntity
  8
0
 62
     5
370
    13
100
AcDbLine
 10
166.5
 20
71.525436
 30
0.0
 11
83.49999999999999
 21
71.525436
 31
0.0
  0
ARC
  5
128
330
A
100
AcDbEntity
  8
0
 62
     5
370
    13
100
AcDbCircle
 10
166.5
 20
77.909592
 30
0.0
 40
6.384155999999999
100
AcDbArc
 50
269.999997
 51
360.0
  0
LINE
  5
129
330
A
100
AcDbEntity
  8
0
 62
     5
370
    13
100
AcDbLine
 10
172.884155
 20
277.909607
 30
0.0
 11
172.884155
 21
77.909592
 31
0.0
  0
ARC
  5
142
330
A
100
AcDbEntity
  8
0
 62
     5
370
    13
100
AcDbCircle
 10
166.5
 20
277.909607
 30
0.0
 40
6.384155999999999
100
AcDbArc
 50
360.0
 51
90.00000300000001
  0
LINE
  5
143
330
A
100
AcDbEntity
  8
0
 62
     5
 48
0.02036
370
    13
100
AcDbLine
 10
172.884155
 20
277.909607
 30
0.0
 11
173.698547
 21
277.909607
 31
0.0
  0
LINE
  5
144
330
A
100
AcDbEntity
  8
0
 62
     5
 48
0.02036
370
    13
100
AcDbLine
 10
166.5
 20
284.293762
 30
0.0
 11
166.5
 21
285.108154
 31
0.0
  0
LINE
  5
146
330
A
100
AcDbEntity
  8
0
 62
     5
 48
0.02036
370
    13
100
AcDbLine
 10
172.884155
 20
77.909592
 30
0.0
 11
173.698547
 21
77.909592
 31
0.0
  0
LINE
  5
148
330
A
100
AcDbEntity
  8
0
 62
     5
 48
0.02036
370
    13
100
AcDbLine
 10
166.5
 20
71.525436
 30
0.0
 11
166.5
 21
70.711044
 31
0.0
  0
LINE
  5
14A
330
A
100
AcDbEntity
  8
0
 62
     5
 48
0.02036
370
    13
100
AcDbLine
 10
83.49999999999999
 20
71.525436
 30
0.0
 11
83.49999999999999
 21
70.711044
 31
0.0
  0
LINE
  5
14C
330
A
100
AcDbEntity
  8
0
 62
     5
 48
0.066334
370
    13
100
AcDbLine
 10
166.5
 20
68.057686
 30
0.0
 11
166.5
 21
70.711044
 31
0.0
  0
LINE
  5
14E
330
A
100
AcDbEntity
  8
0
 62
     5
 48
0.066334
370
    13
100
AcDbLine
 10
83.49999999999999
 20
68.057686
 30
0.0
 11
83.49999999999999
 21
70.711044
 31
0.0
  0
LINE
  5
150
330
A
100
AcDbEntity
  8
0
 62
     5
 48
0.066334
370
    13
100
AcDbLine
 10
176.351898
 20
77.909592
 30
0.0
 11
173.698547
 21
77.909592
 31
0.0
  0
LINE
  5
158
330
A
100
AcDbEntity
  8
0
 62
     5
 48
0.002814
370
    13
100
AcDbLine
 10
166.5
 20
67.94511400000001
 30
0.0
 11
166.5
 21
68.057686
 31
0.0
  0
LINE
  5
15A
330
A
100
AcDbEntity
  8
0
 62
     5
 48
0.000888
370
    13
100
AcDbLine
 10
166.5
 20
67.909592
 30
0.0
 11
166.5
 21
67.94511400000001
 31
0.0
  0
ARC
  5
15B
330
A
100
AcDbEntity
  8
0
 62
     5
370
    35
100
AcDbCircle
 10
166.5
 20
77.909592
 30
0.0
 40
10.0
100
AcDbArc
 50
269.999997
 51
360.0
  0
LINE
  5
15D
330
A
100
AcDbEntity
  8
0
 62
     5
370
    35
100
AcDbLine
 10
176.5
 20
77.909592
 30
0.0
 11
176.5
 21
277.909607
 31
0.0
  0
ARC
  5
15F
330
A
100
AcDbEntity
  8
0
 62
     5
370
    35
100
AcDbCircle
 10
166.5
 20
277.909607
 30
0.0
 40
10.0
100
AcDbArc
 50
360.0
 51
90.00000300000001
  0
LINE
  5
162
330
A
100
AcDbEntity
  8
0
 62
     5
 48
0.000888
370
    13
100
AcDbLine
 10
73.5
 20
77.909592
 30
0.0
 11
73.535522
 21
77.909592
 31
0.0
  0
ARC
  5
163
330
A
100
AcDbEntity
  8
0
 62
     5
370
    35
100
AcDbCircle
 10
83.49999999999999
 20
77.909592
 30
0.0
 40
10.0
100
AcDbArc
 50
180.000005
 51
269.999997
  0
LINE
  5
164
330
A
100
AcDbEntity
  8
0
 62
     5
 48
0.000888
370
    13
100
AcDbLine
 10
83.49999999999999
 20
67.909592
 30
0.0
 11
83.49999999999999
 21
67.94511400000001
 31
0.0
  0
LINE
  5
166
330
A
100
AcDbEntity
  8
0
 62
     5
 48
0.002814
370
    13
100
AcDbLine
 10
83.49999999999999
 20
287.874084
 30
0.0
 11
83.49999999999999
 21
287.761505
 31
0.0
  0
LINE
  5
168
330
A
100
AcDbEntity
  8
0
 62
     5
 48
0.002814
370
    13
100
AcDbLine
 10
73.535522
 20
277.909607
 30
0.0
 11
73.648102
 21
277.909607
 31
0.0
  0
LINE
  5
16A
330
A
100
AcDbEntity
  8
0
 62
     5
 48
0.002814
370
    13
100
AcDbLine
 10
73.535522
 20
77.909592
 30
0.0
 11
73.648102
 21
77.909592
 31
0.0
  0
LINE
  5
16C
330
A
100
AcDbEntity
  8
0
 62
     5
370
    35
100
AcDbLine
 10
73.5
 20
77.909592
 30
0.0
 11
73.5
 21
277.909607
 31
0.0
  0
LINE
  5
16D
330
A
100
AcDbEntity
  8
0
 62
     5
 48
0.000888
370
    13
100
AcDbLine
 10
73.5
 20
277.909607
 30
0.0
 11
73.535522
 21
277.909607
 31
0.0
  0
LINE
  5
16E
330
A
100
AcDbEntity
  8
0
 62
     5
 48
0.000888
370
    13
100
AcDbLine
 10
83.49999999999999
 20
287.909607
 30
0.0
 11
83.49999999999999
 21
287.874084
 31
0.0
  0
ARC
  5
16F
330
A
100
AcDbEntity
  8
0
 62
     5
370
    35
100
AcDbCircle
 10
83.49999999999999
 20
277.909607
 30
0.0
 40
10.0
100
AcDbArc
 50
90.00000300000001
 51
180.000005
  0
LINE
  5
171
330
A
100
AcDbEntity
  8
0
 62
     5
370
    35
100
AcDbLine
 10
166.5
 20
287.909607
 30
0.0
 11
83.49999999999999
 21
287.909607
 31
0.0
  0
LINE
  5
173
330
A
100
AcDbEntity
  8
0
 62
     5
 48
0.066334
370
    13
100
AcDbLine
 10
83.49999999999999
 20
287.761505
 30
0.0
 11
83.49999999999999
 21
285.108154
 31
0.0
  0
LINE
  5
175
330
A
100
AcDbEntity
  8
0
 62
     5
370
    13
100
AcDbLine
 10
166.5
 20
284.293762
 30
0.0
 11
83.49999999999999
 21
284.293762
 31
0.0
  0
LINE
  5
176
330
A
100
AcDbEntity
  8
0
 62
     5
 48
0.02036
370
    13
100
AcDbLine
 10
83.49999999999999
 20
284.293762
 30
0.0
 11
83.49999999999999
 21
285.108154
 31
0.0
  0
ARC
  5
19B
330
A
100
AcDbEntity
  8
0
 62
     5
370
    13
100
AcDbCircle
 10
83.49999999999999
 20
277.909607
 30
0.0
 40
6.384155999999999
100
AcDbArc
 50
90.00000300000001
 51
180.000005
  0
LINE
  5
19C
330
A
100
AcDbEntity
  8
0
 62
     5
 48
0.02036
370
    13
100
AcDbLine
 10
77.11584499999998
 20
277.909607
 30
0.0
 11
76.30145300000002
 21
277.909607
 31
0.0
  0
LINE
  5
19E
330
A
100
AcDbEntity
  8
0
 62
     5
 48
0.066334
370
    13
100
AcDbLine
 10
73.648102
 20
277.909607
 30
0.0
 11
76.30145300000002
 21
277.909607
 31
0.0
  0
LINE
  5
1A0
330
A
100
AcDbEntity
  8
0
 62
     5
 48
0.066334
370
    13
100
AcDbLine
 10
73.648102
 20
77.909592
 30
0.0
 11
76.30145300000002
 21
77.909592
 31
0.0
  0
LINE
  5
1A1
330
A
100
AcDbEntity
  8
0
 62
     5
370
    13
100
AcDbLine
 10
77.11584499999998
 20
277.909607
 30
0.0
 11
77.11584499999998
 21
77.909592
 31
0.0
  0
LINE
  5
1A2
330
A
100
AcDbEntity
  8
0
 62
     5
 48
0.02036
370
    13
100
AcDbLine
 10
77.11584499999998
 20
77.909592
 30
0.0
 11
76.30145300000002
 21
77.909592
 31
0.0
  0
LINE
  5
371
330
A
100
AcDbEntity
  8
0
 62
     5
 48
0.141643
370
    13
100
AcDbLine
 10
171.668945
 20
83.527023
 30
0.0
 11
171.635101
 21
77.861412
 31
0.0
  0
ARC
  5
393
330
A
100
AcDbEntity
  8
0
 62
     5
370
    13
100
AcDbCircle
 10
166.502548
 20
77.937263
 30
0.0
 40
5.134916999999997
100
AcDbArc
 50
269.971543
 51
353.512831
  0
LINE
  5
394
330
A
100
AcDbEntity
  8
0
 62
     5
 48
0.001633
370
    13
100
AcDbLine
 10
171.611328
 20
77.42216500000002
 30
0.0
 11
171.604401
 21
77.357208
 31
0.0
  0
LINE
  5
396
330
A
100
AcDbEntity
  8
0
 62
     7
 48
0.000028
370
    13
100
AcDbLine
 10
165.325439
 20
73.128967
 30
0.0
 11
165.324432
 21
73.129425
 31
0.0
  0
LINE
  5
397
330
A
100
AcDbEntity
  8
0
 62
     7
 48
0.000415
370
    35
100
AcDbLine
 10
165.308868
 20
73.129829
 30
0.0
 11
165.325439
 21
73.128967
 31
0.0
  0
LINE
  5
39F
330
A
100
AcDbEntity
  8
0
 62
     7
 48
0.029364
370
    13
100
AcDbLine
 10
165.325439
 20
73.128967
 30
0.0
 11
166.5
 21
73.128967
 31
0.0
  0
ARC
  5
3A0
330
A
100
AcDbEntity
  8
0
 62
     7
370
    13
100
AcDbCircle
 10
166.5
 20
78.149422
 30
0.0
 40
5.020455
100
AcDbArc
 50
270.000045
 51
284.3776
  0
LINE
  5
3A1
330
A
100
AcDbEntity
  8
0
 62
     7
 48
0.000058
370
    13
100
AcDbLine
 10
167.746628
 20
73.286209
 30
0.0
 11
167.744293
 21
73.286224
 31
0.0
  0
ARC
  5
3A2
330
A
100
AcDbEntity
  8
0
 62
     7
370
    35
100
AcDbCircle
 10
167.393234
 20
74.56636800000002
 30
0.0
 40
1.326341999999999
100
AcDbArc
 50
286.283927
 51
296.70644
  0
LINE
  5
3A3
330
A
100
AcDbEntity
  8
0
 62
     7
 48
0.000494
370
    35
100
AcDbLine
 10
167.765366
 20
73.29245799999998
 30
0.0
 11
167.746628
 21
73.286209
 31
0.0
  0
ARC
  5
3A4
330
A
100
AcDbEntity
  8
0
 62
     7
370
    35
100
AcDbCircle
 10
162.105438
 20
73.70383499999999
 30
0.0
 40
5.902969999999998
100
AcDbArc
 50
357.021707
 51
0.134997
  0
LINE
  5
3A5
330
A
100
AcDbEntity
  8
0
 62
     7
 48
0.00046
370
    35
100
AcDbLine
 10
167.999786
 20
73.397163
 30
0.0
 11
167.988922
 21
73.382317
 31
0.0
  0
LINE
  5
3A6
330
A
100
AcDbEntity
  8
0
 62
     7
 48
0.013478
370
    35
100
AcDbLine
 10
168.015869
 20
74.256821
 30
0.0
 11
168.009003
 21
73.717743
 31
0.0
  0
ARC
  5
3BF
330
A
100
AcDbEntity
  8
0
 62
     7
370
    35
100
AcDbCircle
 10
170.130493
 20
73.43514300000002
 30
0.0
 40
5.135543
100
AcDbArc
 50
179.785155
 51
183.133604
  0
LINE
  5
3C0
330
A
100
AcDbEntity
  8
0
 62
     7
 48
0.000061
370
    35
100
AcDbLine
 10
165.005035
 20
73.152725
 30
0.0
 11
165.003296
 21
73.154449
 31
0.0
  0
LINE
  5
3C1
330
A
100
AcDbEntity
  8
0
 62
     7
 48
0.020062
370
    35
100
AcDbLine
 10
164.984131
 20
74.256821
 30
0.0
 11
164.994339
 21
73.45439899999998
 31
0.0
  0
ARC
  5
3C2
330
A
100
AcDbEntity
  8
0
 62
     7
370
    35
100
AcDbCircle
 10
164.735931
 20
74.26069599999998
 30
0.0
 40
0.247927
100
AcDbArc
 50
359.104788
 51
30.15619000000001
  0
LINE
  5
3C3
330
A
100
AcDbEntity
  8
0
 62
     7
 48
0.000226
370
    35
100
AcDbLine
 10
164.949997
 20
74.39409599999997
 30
0.0
 11
164.949997
 21
74.38507099999998
 31
0.0
  0
LINE
  5
3C4
330
A
100
AcDbEntity
  8
0
 62
     7
 48
0.016637
370
    35
100
AcDbLine
 10
164.949997
 20
75.059593
 30
0.0
 11
164.949997
 21
74.39409599999997
 31
0.0
  0
LINE
  5
3C5
330
A
100
AcDbEntity
  8
0
 62
     7
 48
0.037371
370
    13
100
AcDbLine
 10
163.45517
 20
75.059593
 30
0.0
 11
164.949997
 21
75.059593
 31
0.0
  0
ARC
  5
3C6
330
A
100
AcDbEntity
  8
0
 62
     7
370
    13
100
AcDbCircle
 10
163.455093
 20
75.85966500000002
 30
0.0
 40
0.8000609999999998
100
AcDbArc
 50
180.005036
 51
270.005052
  0
LINE
  5
3C7
330
A
100
AcDbEntity
  8
0
 62
     7
 48
0.05125
370
    13
100
AcDbLine
 10
162.655029
 20
77.909592
 30
0.0
 11
162.655029
 21
75.859589
 31
0.0
  0
ARC
  5
3C8
330
A
100
AcDbEntity
  8
0
 62
     7
370
    13
100
AcDbCircle
 10
166.5
 20
77.909592
 30
0.0
 40
3.844962
100
AcDbArc
 50
359.999996
 51
179.999995
  0
LINE
  5
3C9
330
A
100
AcDbEntity
  8
0
 62
     7
 48
0.05125
370
    13
100
AcDbLine
 10
170.344971
 20
77.909592
 30
0.0
 11
170.344971
 21
75.859589
 31
0.0
  0
ARC
  5
3CB
330
A
100
AcDbEntity
  8
0
 62
     7
370
    35
100
AcDbCircle
 10
166.5
 20
77.909592
 30
0.0
 40
1.55
100
AcDbArc
 50
0.0
 51
180.000005
  0
ARC
  5
3CD
330
A
100
AcDbEntity
  8
0
 62
     7
370
    35
100
AcDbCircle
 10
166.500065926553
 20
77.90515043628531
 30
0.0
 40
2.224422166278259
100
AcDbArc
 50
314.1693811538087
 51
225.8258838172658
  0
LINE
  5
3D9
330
A
100
AcDbEntity
  8
0
 62
     7
 48
0.0075
370
    35
100
AcDbLine
 10
168.050003
 20
75.359589
 30
0.0
 11
168.050003
 21
75.059593
 31
0.0
  0
LINE
  5
3DA
330
A
100
AcDbEntity
  8
0
 62
     7
 48
0.06375
370
    35
100
AcDbLine
 10
168.050003
 20
77.909592
 30
0.0
 11
168.050003
 21
75.359589
 31
0.0
  0
LINE
  5
3DD
330
A
100
AcDbEntity
  8
0
 62
     7
 48
0.037371
370
    13
100
AcDbLine
 10
168.050003
 20
75.059593
 30
0.0
 11
169.54483
 21
75.059593
 31
0.0
  0
LINE
  5
3EF
330
A
100
AcDbEntity
  8
0
 62
     7
 48
0.06375
370
    35
100
AcDbLine
 10
164.949997
 20
77.909592
 30
0.0
 11
164.949997
 21
75.359589
 31
0.0
  0
LINE
  5
3F0
330
A
100
AcDbEntity
  8
0
 62
     7
 48
0.0075
370
    35
100
AcDbLine
 10
164.949997
 20
75.359589
 30
0.0
 11
164.949997
 21
75.059593
 31
0.0
  0
ARC
  5
3F9
330
A
100
AcDbEntity
  8
0
 62
     7
370
    13
100
AcDbCircle
 10
169.5448607746039
 20
75.85970223307248
 30
0.0
 40
0.8001102334085249
100
AcDbArc
 50
269.9981679184625
 51
359.9918913958275
  0
LINE
  5
3FA
330
A
100
AcDbEntity
  8
0
 62
     7
 48
0.016637
370
    35
100
AcDbLine
 10
168.050003
 20
75.059593
 30
0.0
 11
168.050003
 21
74.39409599999997
 31
0.0
  0
LINE
  5
3FB
330
A
100
AcDbEntity
  8
0
 62
     7
 48
0.000226
370
    35
100
AcDbLine
 10
168.050003
 20
74.39409599999997
 30
0.0
 11
168.050003
 21
74.38507099999998
 31
0.0
  0
ARC
  5
3FC
330
A
100
AcDbEntity
  8
0
 62
     7
370
    35
100
AcDbCircle
 10
168.264114
 20
74.26068100000001
 30
0.0
 40
0.247974
100
AcDbArc
 50
149.845881
 51
180.891198
  0
LINE
  5
3FD
330
A
100
AcDbEntity
  8
0
 62
     5
370
    35
100
AcDbLine
 10
166.5
 20
67.909592
 30
0.0
 11
83.49999999999999
 21
67.909592
 31
0.0
  0
LINE
  5
3FF
330
A
100
AcDbEntity
  8
0
 62
     5
 48
0.002814
370
    13
100
AcDbLine
 10
83.49999999999999
 20
67.94511400000001
 30
0.0
 11
83.49999999999999
 21
68.057686
 31
0.0
  0
ARC
  5
402
330
A
100
AcDbEntity
  8
0
 62
     5
370
    13
100
AcDbCircle
 10
83.49999999999999
 20
77.909592
 30
0.0
 40
6.384155999999999
100
AcDbArc
 50
180.000005
 51
269.999997
  0
ARC
  5
404
330
A
100
AcDbEntity
  8
0
 62
     5
370
    13
100
AcDbCircle
 10
83.49743700000002
 20
77.93725600000001
 30
0.0
 40
5.134905
100
AcDbArc
 50
186.487022
 51
270.028575
  0
LINE
  5
405
330
A
100
AcDbEntity
  8
0
 62
     5
 48
0.001633
370
    13
100
AcDbLine
 10
78.39559900000002
 20
77.357208
 30
0.0
 11
78.388672
 21
77.422157
 31
0.0
  0
LINE
  5
419
330
A
100
AcDbEntity
  8
0
 62
     5
 48
0.001221
370
    13
100
AcDbLine
 10
79.378304
 20
83.93006099999999
 30
0.0
 11
79.42660500000002
 21
83.922699
 31
0.0
  0
LINE
  5
41D
330
A
100
AcDbEntity
  8
0
 62
     5
 48
0.126675
370
    13
100
AcDbLine
 10
88.66191099999998
 20
78.76432
 30
0.0
 11
89.516182
 21
73.769859
 31
0.0
  0
ARC
  5
420
330
A
100
AcDbEntity
  8
0
 62
     5
370
    13
100
AcDbCircle
 10
83.498978
 20
77.88134000000002
 30
0.0
 40
5.237839
100
AcDbArc
 50
9.704988
 51
79.940561
  0
LINE
  5
422
330
A
100
AcDbEntity
  8
0
 62
     5
 48
0.126625
370
    13
100
AcDbLine
 10
84.413864
 20
83.038605
 30
0.0
 11
79.42660500000002
 21
83.922699
 31
0.0
  0
ARC
  5
439
330
A
100
AcDbEntity
  8
0
 62
     7
370
    35
100
AcDbCircle
 10
79.869507
 20
73.43514300000002
 30
0.0
 40
5.135543
100
AcDbArc
 50
356.8664
 51
0.214842
  0
LINE
  5
43B
330
A
100
AcDbEntity
  8
0
 62
     7
 48
0.029364
370
    13
100
AcDbLine
 10
83.49999999999999
 20
73.128967
 30
0.0
 11
84.67455300000002
 21
73.128967
 31
0.0
  0
LINE
  5
443
330
A
100
AcDbEntity
  8
0
 62
     7
 48
0.000415
370
    35
100
AcDbLine
 10
84.691124
 20
73.129829
 30
0.0
 11
84.67455300000002
 21
73.128967
 31
0.0
  0
LINE
  5
444
330
A
100
AcDbEntity
  8
0
 62
     7
 48
0.000061
370
    35
100
AcDbLine
 10
84.99496500000002
 20
73.152725
 30
0.0
 11
84.99670400000002
 21
73.154449
 31
0.0
  0
LINE
  5
446
330
A
100
AcDbEntity
  8
0
 62
     7
 48
0.000028
370
    13
100
AcDbLine
 10
84.67455300000002
 20
73.128967
 30
0.0
 11
84.675568
 21
73.129425
 31
0.0
  0
LINE
  5
447
330
A
100
AcDbEntity
  8
0
 62
     7
 48
0.020062
370
    35
100
AcDbLine
 10
85.01586899999997
 20
74.256821
 30
0.0
 11
85.005661
 21
73.45439899999998
 31
0.0
  0
ARC
  5
448
330
A
100
AcDbEntity
  8
0
 62
     7
370
    35
100
AcDbCircle
 10
85.26344300000003
 20
74.260628
 30
0.0
 40
0.247342
100
AcDbArc
 50
149.757102
 51
180.881649
  0
LINE
  5
449
330
A
100
AcDbEntity
  8
0
 62
     7
 48
0.06375
370
    35
100
AcDbLine
 10
85.050003
 20
77.909592
 30
0.0
 11
85.050003
 21
75.359589
 31
0.0
  0
LINE
  5
44A
330
A
100
AcDbEntity
  8
0
 62
     7
 48
0.0075
370
    35
100
AcDbLine
 10
85.050003
 20
75.359589
 30
0.0
 11
85.050003
 21
75.059593
 31
0.0
  0
LINE
  5
44B
330
A
100
AcDbEntity
  8
0
 62
     7
 48
0.016637
370
    35
100
AcDbLine
 10
85.050003
 20
75.059593
 30
0.0
 11
85.050003
 21
74.39409599999997
 31
0.0
  0
LINE
  5
44C
330
A
100
AcDbEntity
  8
0
 62
     7
 48
0.000226
370
    35
100
AcDbLine
 10
85.050003
 20
74.39409599999997
 30
0.0
 11
85.050003
 21
74.38507099999998
 31
0.0
  0
ARC
  5
44E
330
A
100
AcDbEntity
  8
0
 62
     7
370
    35
100
AcDbCircle
 10
90.016212
 20
75.14618699999998
 30
0.0
 40
4.966267
100
AcDbArc
 50
177.536861
 51
180.998978
  0
ARC
  5
46B
330
A
100
AcDbEntity
  8
0
 62
     7
370
    13
100
AcDbCircle
 10
80.45494355639815
 20
75.85959765013758
 30
0.0
 40
0.7999105564024545
100
AcDbArc
 50
180.0002091936157
 51
226.4237644724782
  0
LINE
  5
46E
330
A
100
AcDbEntity
  8
0
 62
     7
 48
0.05125
370
    13
100
AcDbLine
 10
79.65503699999998
 20
77.909592
 30
0.0
 11
79.65503699999998
 21
75.859589
 31
0.0
  0
ARC
  5
470
330
A
100
AcDbEntity
  8
0
 62
     7
370
    13
100
AcDbCircle
 10
83.49999999999999
 20
77.909592
 30
0.0
 40
3.844962
100
AcDbArc
 50
359.999998
 51
179.999991
  0
LINE
  5
472
330
A
100
AcDbEntity
  8
0
 62
     7
 48
0.05125
370
    13
100
AcDbLine
 10
87.34496300000001
 20
77.909592
 30
0.0
 11
87.34496300000001
 21
75.859589
 31
0.0
  0
ARC
  5
474
330
A
100
AcDbEntity
  8
0
 62
     7
370
    13
100
AcDbCircle
 10
86.544907
 20
75.85966500000002
 30
0.0
 40
0.8000609999999998
100
AcDbArc
 50
269.994984
 51
359.99496
  0
LINE
  5
475
330
A
100
AcDbEntity
  8
0
 62
     7
 48
0.037371
370
    13
100
AcDbLine
 10
85.050003
 20
75.059593
 30
0.0
 11
86.54483799999999
 21
75.059593
 31
0.0
  0
ARC
  5
485
330
A
100
AcDbEntity
  8
0
 62
     7
370
    35
100
AcDbCircle
 10
87.894562
 20
73.70383499999999
 30
0.0
 40
5.902969999999998
100
AcDbArc
 50
179.864999
 51
182.978299
  0
LINE
  5
486
330
A
100
AcDbEntity
  8
0
 62
     7
 48
0.00046
370
    35
100
AcDbLine
 10
82.000214
 20
73.397163
 30
0.0
 11
82.011078
 21
73.382317
 31
0.0
  0
LINE
  5
487
330
A
100
AcDbEntity
  8
0
 62
     7
 48
0.000058
370
    13
100
AcDbLine
 10
82.253372
 20
73.286209
 30
0.0
 11
82.255707
 21
73.286224
 31
0.0
  0
LINE
  5
488
330
A
100
AcDbEntity
  8
0
 62
     7
 48
0.000494
370
    35
100
AcDbLine
 10
82.23463399999998
 20
73.29245799999998
 30
0.0
 11
82.253372
 21
73.286209
 31
0.0
  0
ARC
  5
489
330
A
100
AcDbEntity
  8
0
 62
     7
370
    35
100
AcDbCircle
 10
82.60678100000001
 20
74.56639100000002
 30
0.0
 40
1.326367999999997
100
AcDbArc
 50
243.293596
 51
253.715857
  0
ARC
  5
48A
330
A
100
AcDbEntity
  8
0
 62
     7
370
    13
100
AcDbCircle
 10
83.49999999999999
 20
78.14941400000002
 30
0.0
 40
5.020443
100
AcDbArc
 50
255.622422
 51
269.999977
  0
ARC
  5
49E
330
A
100
AcDbEntity
  8
0
 62
     5
370
    13
100
AcDbCircle
 10
88.56424
 20
73.607124
 30
0.0
 40
0.965751
100
AcDbArc
 50
332.201122
 51
9.701025999999997
  0
ARC
  5
528
330
A
100
AcDbEntity
  8
0
 62
     7
370
    13
100
AcDbCircle
 10
154.750839
 20
97.633728
 30
0.0
 40
7.757821999999999
100
AcDbArc
 50
357.293276
 51
359.99998
  0
LINE
  5
529
330
A
100
AcDbEntity
  8
0
 62
     7
 48
0.086766
370
    13
100
AcDbLine
 10
162.508667
 20
101.104362
 30
0.0
 11
162.508667
 21
97.63372
 31
0.0
  0
LINE
  5
61B
330
A
100
AcDbEntity
  8
0
 62
     7
 48
0.000389
370
    35
100
AcDbLine
 10
165.324432
 20
73.129425
 30
0.0
 11
165.308868
 21
73.129829
 31
0.0
  0
LINE
  5
61C
330
A
100
AcDbEntity
  8
0
 62
     7
 48
0.029389
370
    35
100
AcDbLine
 10
165.324432
 20
73.129425
 30
0.0
 11
166.5
 21
73.129425
 31
0.0
  0
LINE
  5
61E
330
A
100
AcDbEntity
  8
0
 62
     7
 48
0.000549
370
    35
100
AcDbLine
 10
167.744293
 20
73.286224
 30
0.0
 11
167.765366
 21
73.29245799999998
 31
0.0
  0
LINE
  5
620
330
A
100
AcDbEntity
  8
0
 62
     7
 48
0.000389
370
    35
100
AcDbLine
 10
84.675568
 20
73.129425
 30
0.0
 11
84.691124
 21
73.129829
 31
0.0
  0
LINE
  5
621
330
A
100
AcDbEntity
  8
0
 62
     7
 48
0.000549
370
    35
100
AcDbLine
 10
82.255707
 20
73.286224
 30
0.0
 11
82.23463399999998
 21
73.29245799999998
 31
0.0
  0
LINE
  5
80E
330
A
100
AcDbEntity
  8
0
 62
     7
 48
0.194593
370
    35
100
AcDbLine
 10
138.0
 20
170.933121
 30
0.0
 11
138.0
 21
178.716827
 31
0.0
  0
LINE
  5
80F
330
A
100
AcDbEntity
  8
0
 62
     7
 48
0.126478
370
    35
100
AcDbLine
 10
138.0
 20
170.933121
 30
0.0
 11
138.0
 21
165.873993
 31
0.0
  0
LINE
  5
810
330
A
100
AcDbEntity
  8
0
 62
     7
 48
0.004027
370
    35
100
AcDbLine
 10
138.0
 20
165.979004
 30
0.0
 11
137.851349
 21
165.916916
 31
0.0
  0
LINE
  5
813
330
A
100
AcDbEntity
  8
0
 62
     7
 48
0.325
370
    13
100
AcDbLine
 10
154.5
 20
170.457687
 30
0.0
 11
141.5
 21
170.457687
 31
0.0
  0
LINE
  5
815
330
A
100
AcDbEntity
  8
0
 62
     7
 48
0.325
370
    13
100
AcDbLine
 10
108.499992
 20
172.774597
 30
0.0
 11
95.5
 21
172.774597
 31
0.0
  0
LINE
  5
816
330
A
100
AcDbEntity
  8
0
 62
     7
 48
0.325
370
    13
100
AcDbLine
 10
154.5
 20
172.774597
 30
0.0
 11
141.5
 21
172.774597
 31
0.0
  0
LINE
  5
818
330
A
100
AcDbEntity
  8
0
 62
     7
 48
0.325
370
    13
100
AcDbLine
 10
108.5
 20
170.457687
 30
0.0
 11
95.5
 21
170.457687
 31
0.0
  0
LINE
  5
819
330
A
100
AcDbEntity
  8
0
 62
     7
 48
0.194593
370
    13
100
AcDbLine
 10
140.5
 20
170.933121
 30
0.0
 11
140.5
 21
178.716827
 31
0.0
  0
LINE
  5
81A
330
A
100
AcDbEntity
  8
0
 62
     7
 48
0.0625
370
    13
100
AcDbLine
 10
140.5
 20
170.933121
 30
0.0
 11
138.0
 21
170.933121
 31
0.0
  0
LINE
  5
81B
330
A
100
AcDbEntity
  8
0
 62
     7
 48
0.164315
370
    35
100
AcDbLine
 10
141.5
 20
171.275131
 30
0.0
 11
141.5
 21
164.702545
 31
0.0
  0
ELLIPSE
  5
81C
330
A
100
AcDbEntity
  8
0
 62
     7
370
    13
100
AcDbEllipse
 10
140.5
 20
171.275131
 30
0.0
 11
1.0
 21
0.0
 31
0.0
210
0.0
220
0.0
230
1.0
 40
0.34202
 41
4.712388980384688
 42
6.283185307179577
  0
LINE
  5
81D
330
A
100
AcDbEntity
  8
0
 62
     7
 48
0.146592
370
    13
100
AcDbLine
 10
140.5
 20
170.933121
 30
0.0
 11
140.5
 21
165.069427
 31
0.0
  0
LINE
  5
81E
330
A
100
AcDbEntity
  8
0
 62
     7
 48
0.194593
370
    35
100
AcDbLine
 10
112.0
 20
170.933121
 30
0.0
 11
112.0
 21
178.716827
 31
0.0
  0
LINE
  5
81F
330
A
100
AcDbEntity
  8
0
 62
     7
 48
0.126477
370
    35
100
AcDbLine
 10
112.0
 20
170.933121
 30
0.0
 11
112.0
 21
165.874054
 31
0.0
  0
LINE
  5
820
330
A
100
AcDbEntity
  8
0
 62
     7
 48
0.0625
370
    13
100
AcDbLine
 10
109.5
 20
170.933121
 30
0.0
 11
112.0
 21
170.933121
 31
0.0
  0
LINE
  5
821
330
A
100
AcDbEntity
  8
0
 62
     7
 48
0.146593
370
    13
100
AcDbLine
 10
109.5
 20
170.933121
 30
0.0
 11
109.5
 21
165.069397
 31
0.0
  0
ELLIPSE
  5
822
330
A
100
AcDbEntity
  8
0
 62
     7
370
    13
100
AcDbEllipse
 10
109.5
 20
171.275131
 30
0.0
 11
1.0
 21
0.0
 31
0.0
210
0.0
220
0.0
230
1.0
 40
0.34202
 41
3.141592653589792
 42
4.712388980384688
  0
LINE
  5
823
330
A
100
AcDbEntity
  8
0
 62
     7
 48
0.164313
370
    35
100
AcDbLine
 10
108.5
 20
171.275131
 30
0.0
 11
108.5
 21
164.702606
 31
0.0
  0
LINE
  5
824
330
A
100
AcDbEntity
  8
0
 62
     7
 48
0.161042
370
    35
100
AcDbLine
 10
108.5
 20
171.275131
 30
0.0
 11
108.5
 21
177.716827
 31
0.0
  0
ELLIPSE
  5
825
330
A
100
AcDbEntity
  8
0
 62
     7
370
    13
100
AcDbEllipse
 10
154.5
 20
164.548843
 30
0.0
 11
6.0
 21
0.0
 31
0.0
210
0.0
220
0.0
230
1.0
 40
0.9848079999999999
 41
0.0000000015381094
 42
1.570796326794897
  0
LINE
  5
826
330
A
100
AcDbEntity
  8
0
 62
     7
 48
0.343699
370
    13
100
AcDbLine
 10
160.5
 20
164.548843
 30
0.0
 11
160.5
 21
150.800873
 31
0.0
  0
LINE
  5
827
330
A
100
AcDbEntity
  8
0
 62
     7
 48
0.037648
370
    13
100
AcDbLine
 10
160.5
 20
98.10304999999999
 30
0.0
 11
160.5
 21
96.597115
 31
0.0
  0
ELLIPSE
  5
828
330
A
100
AcDbEntity
  8
0
 62
     7
370
    13
100
AcDbEllipse
 10
154.5
 20
96.597115
 30
0.0
 11
6.0
 21
0.0
 31
0.0
210
0.0
220
0.0
230
1.0
 40
0.9848079999999999
 41
4.712388981922797
 42
6.283185307179584
  0
LINE
  5
829
330
A
100
AcDbEntity
  8
0
 62
     7
 48
0.002466
370
    13
100
AcDbLine
 10
154.401367
 20
90.68826300000001
 30
0.0
 11
154.5
 21
90.68826300000001
 31
0.0
  0
LINE
  5
82A
330
A
100
AcDbEntity
  8
0
 62
     7
 48
0.002464
370
    13
100
AcDbLine
 10
95.5
 20
90.68826300000001
 30
0.0
 11
95.59857200000001
 21
90.68826300000001
 31
0.0
  0
ELLIPSE
  5
82B
330
A
100
AcDbEntity
  8
0
 62
     7
370
    13
100
AcDbEllipse
 10
95.5
 20
96.597115
 30
0.0
 11
6.0
 21
0.0
 31
0.0
210
0.0
220
0.0
230
1.0
 40
0.9848079999999999
 41
3.141592655127901
 42
4.712388980384691
  0
LINE
  5
82C
330
A
100
AcDbEntity
  8
0
 62
     7
 48
0.037623
370
    13
100
AcDbLine
 10
89.50000000000001
 20
96.597115
 30
0.0
 11
89.50000000000001
 21
98.10202
 31
0.0
  0
LINE
  5
82D
330
A
100
AcDbEntity
  8
0
 62
     7
 48
0.3437
370
    13
100
AcDbLine
 10
89.50000000000001
 20
150.800842
 30
0.0
 11
89.50000000000001
 21
164.548843
 31
0.0
  0
ELLIPSE
  5
82E
330
A
100
AcDbEntity
  8
0
 62
     7
370
    13
100
AcDbEllipse
 10
95.5
 20
164.548843
 30
0.0
 11
6.0
 21
0.0
 31
0.0
210
0.0
220
0.0
230
1.0
 40
0.9848079999999999
 41
1.57079632833301
 42
3.14159265358979
  0
ELLIPSE
  5
82F
330
A
100
AcDbEntity
  8
0
 62
     7
370
    35
100
AcDbEllipse
 10
155.0
 20
160.117218
 30
0.0
 11
2.0
 21
0.0
 31
0.0
210
0.0
220
0.0
230
1.0
 40
0.9848079999999999
 41
3.141592653589792
 42
6.283185307179584
  0
ELLIPSE
  5
830
330
A
100
AcDbEntity
  8
0
 62
     7
370
    35
100
AcDbEllipse
 10
155.0
 20
160.117218
 30
0.0
 11
2.0
 21
0.0
 31
0.0
210
0.0
220
0.0
230
1.0
 40
0.9848079999999999
 41
0.0
 42
3.141592653589792
  0
ELLIPSE
  5
831
330
A
100
AcDbEntity
  8
0
 62
     7
370
    35
100
AcDbEllipse
 10
95.0
 20
160.117218
 30
0.0
 11
2.0
 21
0.0
 31
0.0
210
0.0
220
0.0
230
1.0
 40
0.9848079999999999
 41
3.141592653589792
 42
6.283185307179584
  0
ELLIPSE
  5
832
330
A
100
AcDbEntity
  8
0
 62
     7
370
    35
100
AcDbEllipse
 10
95.0
 20
160.117218
 30
0.0
 11
2.0
 21
0.0
 31
0.0
210
0.0
220
0.0
230
1.0
 40
0.9848079999999999
 41
0.0
 42
3.141592653589792
  0
LINE
  5
833
330
A
100
AcDbEntity
  8
0
 62
     7
 48
0.161042
370
    35
100
AcDbLine
 10
141.5
 20
171.275131
 30
0.0
 11
141.5
 21
177.716827
 31
0.0
  0
ELLIPSE
  5
835
330
A
100
AcDbEntity
  8
0
 62
     7
370
    13
100
AcDbEllipse
 10
154.5
 20
164.896149
 30
0.0
 11
8.0
 21
0.0
 31
0.0
210
0.0
220
0.0
230
1.0
 40
0.9848079999999999
 41
6.283185307179588
 42
7.853981633974482
  0
ELLIPSE
  5
83B
330
A
100
AcDbEntity
  8
0
 62
     7
370
    13
100
AcDbEllipse
 10
95.5
 20
164.896149
 30
0.0
 11
8.0
 21
0.0
 31
0.0
210
0.0
220
0.0
230
1.0
 40
0.9848079999999999
 41
1.570796326794897
 42
3.14159265358979
  0
LINE
  5
83C
330
A
100
AcDbEntity
  8
0
 62
     7
 48
0.194593
370
    13
100
AcDbLine
 10
109.5
 20
170.933121
 30
0.0
 11
109.5
 21
178.716827
 31
0.0
  0
LINE
  5
83E
330
A
100
AcDbEntity
  8
0
 62
     7
 48
0.422363
370
    35
100
AcDbLine
 10
162.5
 20
164.896149
 30
0.0
 11
162.5
 21
148.001648
 31
0.0
  0
LINE
  5
83F
330
A
100
AcDbEntity
  8
0
 62
     7
 48
0.103642
370
    35
100
AcDbLine
 10
162.5
 20
101.09008
 30
0.0
 11
162.5
 21
96.944405
 31
0.0
  0
LINE
  5
843
330
A
100
AcDbEntity
  8
0
 62
     7
 48
0.103644
370
    35
100
AcDbLine
 10
87.5
 20
96.944405
 30
0.0
 11
87.5
 21
101.090164
 31
0.0
  0
LINE
  5
844
330
A
100
AcDbEntity
  8
0
 62
     7
 48
0.422363
370
    35
100
AcDbLine
 10
87.5
 20
148.001617
 30
0.0
 11
87.5
 21
164.896149
 31
0.0
  0
LINE
  5
84B
330
A
100
AcDbEntity
  8
0
 62
     7
 48
0.0625
370
    35
100
AcDbLine
 10
138.0
 20
178.716827
 30
0.0
 11
140.5
 21
178.716827
 31
0.0
  0
ARC
  5
84C
330
A
100
AcDbEntity
  8
0
 62
     7
370
    35
100
AcDbCircle
 10
140.5
 20
177.716827
 30
0.0
 40
1.0
100
AcDbArc
 50
360.0
 51
90.00000300000001
  0
LINE
  5
84D
330
A
100
AcDbEntity
  8
0
 62
     7
 48
0.0625
370
    35
100
AcDbLine
 10
109.5
 20
178.716827
 30
0.0
 11
112.0
 21
178.716827
 31
0.0
  0
ARC
  5
84E
330
A
100
AcDbEntity
  8
0
 62
     7
370
    35
100
AcDbCircle
 10
109.5
 20
177.716827
 30
0.0
 40
1.0
100
AcDbArc
 50
90.00000300000001
 51
179.999995
  0
ELLIPSE
  5
84F
330
A
100
AcDbEntity
  8
0
 62
     7
370
    35
100
AcDbEllipse
 10
154.499359
 20
96.94503799999999
 30
0.0
 11
8.000595092773437
 21
-0.0267181396484375
 31
0.0
210
0.0
220
0.0
230
1.0
 40
0.9886049999999999
 41
4.715770474182049
 42
6.285924335701632
  0
LINE
  5
850
330
A
100
AcDbEntity
  8
0
 62
     7
 48
0.054342
370
    35
100
AcDbLine
 10
95.5
 20
89.03556100000001
 30
0.0
 11
97.673676
 21
89.03556100000001
 31
0.0
  0
LINE
  5
851
330
A
100
AcDbEntity
  8
0
 62
     7
 48
0.008457
370
    35
100
AcDbLine
 10
98.312912
 20
89.03556100000001
 30
0.0
 11
98.651207
 21
89.03556100000001
 31
0.0
  0
LINE
  5
852
330
A
100
AcDbEntity
  8
0
 62
     7
 48
0.054343
370
    35
100
AcDbLine
 10
152.326263
 20
89.03556100000001
 30
0.0
 11
154.5
 21
89.03556100000001
 31
0.0
  0
ELLIPSE
  5
853
330
A
100
AcDbEntity
  8
0
 62
     7
370
    35
100
AcDbEllipse
 10
95.50063299999999
 20
96.94503799999999
 30
0.0
 11
8.000595092773437
 21
0.0267181396484375
 31
0.0
210
0.0
220
0.0
230
1.0
 40
0.9886049999999999
 41
3.138293914618876
 42
4.709007946075912
  0
LINE
  5
854
330
A
100
AcDbEntity
  8
0
 62
     7
 48
0.104107
370
    35
100
AcDbLine
 10
137.75
 20
174.6025389999999
 30
0.0
 11
137.75
 21
178.76683
 31
0.0
  0
LINE
  5
855
330
A
100
AcDbEntity
  8
0
 62
     7
 48
0.002672
370
    35
100
AcDbLine
 10
137.75
 20
174.6025389999999
 30
0.0
 11
137.75
 21
174.495651
 31
0.0
  0
LINE
  5
856
330
A
100
AcDbEntity
  8
0
 62
     7
 48
0.032043
370
    35
100
AcDbLine
 10
137.75
 20
173.213943
 30
0.0
 11
137.75
 21
174.495651
 31
0.0
  0
LINE
  5
857
330
A
100
AcDbEntity
  8
0
 62
     7
 48
0.172668
370
    35
100
AcDbLine
 10
137.75
 20
173.213943
 30
0.0
 11
137.75
 21
166.307205
 31
0.0
  0
LINE
  5
858
330
A
100
AcDbEntity
  8
0
 62
     7
 48
0.009038
370
    35
100
AcDbLine
 10
137.75
 20
165.945694
 30
0.0
 11
137.75
 21
166.307205
 31
0.0
  0
LINE
  5
85A
330
A
100
AcDbEntity
  8
0
 62
     7
 48
0.002672
370
    35
100
AcDbLine
 10
112.25
 20
174.6025389999999
 30
0.0
 11
112.25
 21
174.495651
 31
0.0
  0
LINE
  5
85B
330
A
100
AcDbEntity
  8
0
 62
     7
370
    13
100
AcDbLine
 10
112.25
 20
174.495651
 30
0.0
 11
137.75
 21
174.495651
 31
0.0
  0
LINE
  5
85C
330
A
100
AcDbEntity
  8
0
 62
     7
 48
0.032043
370
    35
100
AcDbLine
 10
112.25
 20
173.213943
 30
0.0
 11
112.25
 21
174.495651
 31
0.0
  0
LINE
  5
85D
330
A
100
AcDbEntity
  8
0
 62
     7
370
    13
100
AcDbLine
 10
112.25
 20
173.213943
 30
0.0
 11
137.75
 21
173.213943
 31
0.0
  0
ELLIPSE
  5
85F
330
A
100
AcDbEntity
  8
0
 62
     6
370
    13
100
AcDbEllipse
 10
125.0
 20
119.361969
 30
0.0
 11
-29.05446624755859
 21
0.0
 31
0.0
210
0.0
220
0.0
230
1.0
 40
0.9396929999999999
 41
3.641592653589816
 42
9.9247779607694
  0
LINE
  5
863
330
A
100
AcDbEntity
  8
0
 62
     7
 48
0.104107
370
    35
100
AcDbLine
 10
112.25
 20
174.6025389999999
 30
0.0
 11
112.25
 21
178.76683
 31
0.0
  0
LINE
  5
864
330
A
100
AcDbEntity
  8
0
 62
     7
 48
0.172668
370
    35
100
AcDbLine
 10
112.25
 20
173.213943
 30
0.0
 11
112.25
 21
166.307205
 31
0.0
  0
LINE
  5
865
330
A
100
AcDbEntity
  8
0
 62
     7
 48
0.009038
370
    35
100
AcDbLine
 10
112.25
 20
165.945679
 30
0.0
 11
112.25
 21
166.307205
 31
0.0
  0
LINE
  5
871
330
A
100
AcDbEntity
  8
0
 62
     7
 48
0.020934
370
    13
100
AcDbLine
 10
118.099998
 20
168.045639
 30
0.0
 11
118.099998
 21
167.208282
 31
0.0
  0
ELLIPSE
  5
872
330
A
100
AcDbEntity
  8
0
 62
     7
370
    13
100
AcDbEllipse
 10
119.75
 20
168.045639
 30
0.0
 11
-1.650001525878906
 21
0.0
 31
0.0
210
0.0
220
0.0
230
1.0
 40
0.9396929999999999
 41
4.712388980384688
 42
6.283185772551687
  0
LINE
  5
873
330
A
100
AcDbEntity
  8
0
 62
     7
 48
0.247988
370
    13
100
AcDbLine
 10
129.669525
 20
169.59613
 30
0.0
 11
119.75
 21
169.59613
 31
0.0
  0
LINE
  5
874
330
A
100
AcDbEntity
  8
0
 62
     7
 48
0.014592
370
    13
100
AcDbLine
 10
129.669525
 20
169.59613
 30
0.0
 11
130.253189
 21
169.595596
 31
0.0
  0
ELLIPSE
  5
875
330
A
100
AcDbEntity
  8
0
 62
     7
370
    13
100
AcDbEllipse
 10
130.25
 20
168.045639
 30
0.0
 11
-1.649436950683593
 21
0.0
 31
0.0
210
0.0
220
0.0
230
1.0
 40
0.9396929999999999
 41
3.141592653589798
 42
4.710457989406438
  0
LINE
  5
876
330
A
100
AcDbEntity
  8
0
 62
     7
 48
0.020932
370
    13
100
AcDbLine
 10
131.899445
 20
168.045639
 30
0.0
 11
131.899445
 21
167.208374
 31
0.0
  0
LINE
  5
8BF
330
A
100
AcDbEntity
  8
0
 62
     7
370
    35
100
AcDbLine
 10
112.25
 20
178.76683
 30
0.0
 11
137.75
 21
178.76683
 31
0.0
  0
ELLIPSE
  5
8D2
330
A
100
AcDbEntity
  8
0
 62
     6
370
    13
100
AcDbEllipse
 10
125.0
 20
120.559036
 30
0.0
 11
-41.0
 21
0.0
 31
0.0
210
0.0
220
0.0
230
1.0
 40
0.9396930000000001
 41
3.521376584724832
 42
3.783175972523988
  0
ELLIPSE
  5
8D3
330
A
100
AcDbEntity
  8
0
 62
     6
370
    35
100
AcDbEllipse
 10
163.078522
 20
135.594345
 30
0.0
 11
-2.024894714355468
 21
-0.860137939453125
 31
0.0
210
0.0
220
0.0
230
0.9999999999999998
 40
0.3176489999999999
 41
1.436675389625053
 42
3.007471716420711
  0
ELLIPSE
  5
8D4
330
A
100
AcDbEntity
  8
0
 62
     6
370
    13
100
AcDbEllipse
 10
125.0
 20
121.311478
 30
0.0
 11
-43.19999694824216
 21
0.0
 31
0.0
210
0.0
220
0.0
230
1.0
 40
0.9396930000000001
 41
3.521376584724832
 42
3.776543163599011
  0
ELLIPSE
  5
8D5
330
A
100
AcDbEntity
  8
0
 62
     6
370
    13
100
AcDbEllipse
 10
125.0
 20
120.559036
 30
0.0
 11
-41.0
 21
0.0
 31
0.0
210
0.0
220
0.0
230
1.0
 40
0.9396930000000001
 41
3.783175972523988
 42
4.306774748122365
  0
ELLIPSE
  5
8D6
330
A
100
AcDbEntity
  8
0
 62
     6
370
    35
100
AcDbEllipse
 10
150.377228
 20
151.571869
 30
0.0
 11
-1.309257507324217
 21
-1.76800537109375
 31
0.0
210
0.0
220
0.0
230
1.0
 40
0.211696
 41
1.292351440165379
 42
2.863147766961036
  0
ELLIPSE
  5
8D7
330
A
100
AcDbEntity
  8
0
 62
     6
370
    13
100
AcDbEllipse
 10
125.0
 20
121.311478
 30
0.0
 11
-43.19999694824216
 21
0.0
 31
0.0
210
0.0
220
0.0
230
1.0
 40
0.9396930000000001
 41
4.044975360323141
 42
4.303869236395986
  0
ELLIPSE
  5
8D8
330
A
100
AcDbEntity
  8
0
 62
     6
370
    13
100
AcDbEllipse
 10
125.0
 20
120.559036
 30
0.0
 11
-41.0
 21
0.0
 31
0.0
210
0.0
220
0.0
230
1.0
 40
0.9396930000000001
 41
4.306774748122299
 42
4.830373523720671
  0
ELLIPSE
  5
8D9
330
A
100
AcDbEntity
  8
0
 62
     6
370
    35
100
AcDbEllipse
 10
130.876099
 20
159.441132
 30
0.0
 11
-0.2966461181640625
 21
-2.179916381835937
 31
0.0
210
0.0
220
0.0
230
1.0
 40
0.049018
 41
1.225052398621029
 42
2.795848725416683
  0
ELLIPSE
  5
8DA
330
A
100
AcDbEntity
  8
0
 62
     6
370
    13
100
AcDbEllipse
 10
125.0
 20
121.311478
 30
0.0
 11
-43.19999694824216
 21
0.0
 31
0.0
210
0.0
220
0.0
230
1.0
 40
0.9396930000000001
 41
4.568574135921453
 42
4.830373523720603
  0
ELLIPSE
  5
8DB
330
A
100
AcDbEntity
  8
0
 62
     6
370
    35
100
AcDbEllipse
 10
120.173851
 20
159.57103
 30
0.0
 11
0.2435455322265625
 21
-2.186477661132812
 31
0.0
210
0.0
220
0.0
230
0.9999999999999998
 40
0.04026
 41
3.488422325369513
 42
5.059218652165164
  0
ELLIPSE
  5
8DC
330
A
100
AcDbEntity
  8
0
 62
     6
370
    13
100
AcDbEllipse
 10
125.0
 20
120.559036
 30
0.0
 11
-41.0
 21
0.0
 31
0.0
210
0.0
220
0.0
230
1.0
 40
0.9396930000000001
 41
4.830373523720603
 42
6.92476862611391
  0
ELLIPSE
  5
8DD
330
A
100
AcDbEntity
  8
0
 62
     6
370
    13
100
AcDbEllipse
 10
125.0
 20
121.311478
 30
0.0
 11
-43.19999694824216
 21
0.0
 31
0.0
210
0.0
220
0.0
230
1.0
 40
0.9396930000000001
 41
5.094892648547229
 42
5.353972299318893
  0
ELLIPSE
  5
8DE
330
A
100
AcDbEntity
  8
0
 62
     6
370
    35
100
AcDbEllipse
 10
100.462952
 20
152.177673
 30
0.0
 11
1.263984680175781
 21
-1.8006591796875
 31
0.0
210
0.0
220
0.0
230
1.0
 40
0.204687
 41
3.425320218377021
 42
4.996116545172673
  0
ELLIPSE
  5
8DF
330
A
100
AcDbEntity
  8
0
 62
     6
370
    13
100
AcDbEllipse
 10
125.0
 20
121.585098
 30
0.0
 11
44.0
 21
0.0
 31
0.0
210
0.0
220
0.0
230
1.0
 40
0.9396929999999999
 41
2.212379645729515
 42
2.47417903352868
  0
ELLIPSE
  5
8E0
330
A
100
AcDbEntity
  8
0
 62
     6
370
    35
100
AcDbEllipse
 10
92.797569
 20
145.431885
 30
0.0
 11
2.298667907714844
 21
-1.927734375
 31
0.0
210
0.0
220
0.0
230
1.0
 40
0.268631
 41
3.363175298669818
 42
4.933971625466287
  0
ELLIPSE
  5
8E1
330
A
100
AcDbEntity
  8
0
 62
     6
370
    35
100
AcDbEllipse
 10
100.462952
 20
152.451294
 30
0.0
 11
1.723609924316406
 21
-2.455429077148437
 31
0.0
210
0.0
220
0.0
230
1.0
 40
0.2046869999999999
 41
3.425320218377012
 42
4.996116545173471
  0
ELLIPSE
  5
8E2
330
A
100
AcDbEntity
  8
0
 62
     6
370
    13
100
AcDbEllipse
 10
125.0
 20
121.311478
 30
0.0
 11
-43.19999694824216
 21
0.0
 31
0.0
210
0.0
220
0.0
230
1.0
 40
0.9396930000000001
 41
5.622223478737142
 42
5.877571074917183
  0
ELLIPSE
  5
8E3
330
A
100
AcDbEntity
  8
0
 62
     6
370
    35
100
AcDbEllipse
 10
87.326736
 20
136.513748
 30
0.0
 11
2.000968933105468
 21
-0.9144134521484376
 31
0.0
210
0.0
220
0.0
230
1.0
 40
0.314269
 41
3.284233848001496
 42
4.85503017479715
  0
ELLIPSE
  5
8E4
330
A
100
AcDbEntity
  8
0
 62
     6
370
    13
100
AcDbEllipse
 10
125.0
 20
121.585098
 30
0.0
 11
44.0
 21
0.0
 31
0.0
210
0.0
220
0.0
230
1.0
 40
0.9396929999999999
 41
2.735978421327844
 42
2.997777809127009
  0
ELLIPSE
  5
8E5
330
A
100
AcDbEntity
  8
0
 62
     6
370
    35
100
AcDbEllipse
 10
84.423264
 20
127.106827
 30
0.0
 11
2.964996337890625
 21
-0.4569244384765625
 31
0.0
210
0.0
220
0.0
230
1.0
 40
0.338489
 41
3.193709488367546
 42
4.764505815164011
  0
ELLIPSE
  5
8E6
330
A
100
AcDbEntity
  8
0
 62
     6
370
    35
100
AcDbEllipse
 10
87.326736
 20
136.787354
 30
0.0
 11
2.728584289550779
 21
-1.246932983398435
 31
0.0
210
0.0
220
0.0
230
1.0
 40
0.314269
 41
3.284233848001483
 42
4.855030174797952
  0
ELLIPSE
  5
8E7
330
A
100
AcDbEntity
  8
0
 62
     6
370
    13
100
AcDbEllipse
 10
125.0
 20
121.311478
 30
0.0
 11
-43.19999694824216
 21
0.0
 31
0.0
210
0.0
220
0.0
230
1.0
 40
0.9396930000000001
 41
6.149160170646378
 42
6.283177827610407
  0
ELLIPSE
  5
8E8
330
A
100
AcDbEntity
  8
0
 62
     6
370
    35
100
AcDbEllipse
 10
84.285042
 20
116.776382
 30
0.0
 11
2.182708740234375
 21
0.27532958984375
 31
0.0
210
0.0
220
0.0
230
0.9999999999999998
 40
0.339642
 41
3.141633467994694
 42
4.669571863968493
  0
ELLIPSE
  5
8E9
330
A
100
AcDbEntity
  8
0
 62
     6
370
    35
100
AcDbEllipse
 10
86.921463
 20
107.302223
 30
0.0
 11
2.761215209960937
 21
1.17291259765625
 31
0.0
210
0.0
220
0.0
230
1.0
 40
0.3176489999999999
 41
3.141586013067585
 42
4.57826804321719
  0
ELLIPSE
  5
8EA
330
A
100
AcDbEntity
  8
0
 62
     6
370
    35
100
AcDbEllipse
 10
84.285034
 20
117.049995
 30
0.0
 11
2.976409912109375
 21
0.375457763671875
 31
0.0
210
0.0
220
0.0
230
0.9999999999999998
 40
0.339642
 41
3.098775537172828
 42
3.1415922001337
  0
ELLIPSE
  5
8EB
330
A
100
AcDbEntity
  8
0
 62
     6
370
    35
100
AcDbEllipse
 10
84.285034
 20
117.049995
 30
0.0
 11
2.976409912109375
 21
0.375457763671875
 31
0.0
210
0.0
220
0.0
230
0.9999999999999998
 40
0.339642
 41
3.1415922001337
 42
4.669571863969291
  0
ELLIPSE
  5
8EC
330
A
100
AcDbEntity
  8
0
 62
     6
370
    35
100
AcDbEllipse
 10
92.15288499999999
 20
98.254196
 30
0.0
 11
1.722152709960934
 21
1.369018554687499
 31
0.0
210
0.0
220
0.0
230
1.0
 40
0.274009
 41
3.141592188384073
 42
4.497915809114791
  0
ELLIPSE
  5
8ED
330
A
100
AcDbEntity
  8
0
 62
     6
370
    13
100
AcDbEllipse
 10
125.0
 20
120.559036
 30
0.0
 11
-41.0
 21
0.0
 31
0.0
210
0.0
220
0.0
230
1.0
 40
0.9396930000000001
 41
0.6415833189341937
 42
1.165182094532569
  0
ELLIPSE
  5
8EE
330
A
100
AcDbEntity
  8
0
 62
     6
370
    35
100
AcDbEllipse
 10
108.82209
 20
85.91019399999998
 30
0.0
 11
0.8232650756835937
 21
2.0401611328125
 31
0.0
210
0.0
220
0.0
230
0.9999999999999998
 40
0.134955
 41
3.14163750145722
 42
4.389644767955855
  0
ELLIPSE
  5
8EF
330
A
100
AcDbEntity
  8
0
 62
     6
370
    13
100
AcDbEllipse
 10
125.0
 20
120.559036
 30
0.0
 11
-41.0
 21
0.0
 31
0.0
210
0.0
220
0.0
230
1.0
 40
0.9396930000000001
 41
1.165182094532507
 42
1.688780870130875
  0
ELLIPSE
  5
8F0
330
A
100
AcDbEntity
  8
0
 62
     6
370
    13
100
AcDbEllipse
 10
125.0
 20
120.559036
 30
0.0
 11
-41.0
 21
0.0
 31
0.0
210
0.0
220
0.0
230
1.0
 40
0.9396930000000001
 41
1.688780870130811
 42
3.521376584724948
  0
ELLIPSE
  5
8F1
330
A
100
AcDbEntity
  8
0
 62
     6
370
    35
100
AcDbEllipse
 10
140.199509
 20
85.529366
 30
0.0
 11
-0.7726364135742188
 21
2.059860229492187
 31
0.0
210
0.0
220
0.0
230
0.9999999999999998
 40
0.126794
 41
1.896772797292094
 42
3.14154985749302
  0
ELLIPSE
  5
8F2
330
A
100
AcDbEntity
  8
0
 62
     6
370
    35
100
AcDbEllipse
 10
157.202423
 20
97.73830400000001
 30
0.0
 11
-2.298667907714844
 21
1.927734375
 31
0.0
210
0.0
220
0.0
230
1.0
 40
0.268631
 41
3.141600045447568
 42
3.363175298669818
  0
ELLIPSE
  5
8F3
330
A
100
AcDbEntity
  8
0
 62
     6
370
    35
100
AcDbEllipse
 10
157.202423
 20
97.73830400000001
 30
0.0
 11
-2.298667907714844
 21
1.927734375
 31
0.0
210
0.0
220
0.0
230
1.0
 40
0.268631
 41
1.79237897187334
 42
3.141600045447568
  0
ELLIPSE
  5
8F4
330
A
100
AcDbEntity
  8
0
 62
     6
370
    35
100
AcDbEllipse
 10
149.537048
 20
90.71890999999999
 30
0.0
 11
-1.723617553710937
 21
2.4554443359375
 31
0.0
210
0.0
220
0.0
230
1.0
 40
0.2046869999999999
 41
1.854525446096499
 42
3.141586845050888
  0
ELLIPSE
  5
8F5
330
A
100
AcDbEntity
  8
0
 62
     6
370
    35
100
AcDbEllipse
 10
157.202423
 20
97.46469900000001
 30
0.0
 11
-1.685691833496093
 21
1.413665771484375
 31
0.0
210
0.0
220
0.0
230
1.0
 40
0.268631
 41
1.792378971874144
 42
3.141605070196091
  0
ELLIPSE
  5
8F6
330
A
100
AcDbEntity
  8
0
 62
     6
370
    35
100
AcDbEllipse
 10
162.673264
 20
106.382828
 30
0.0
 11
-2.728584289550779
 21
1.246932983398435
 31
0.0
210
0.0
220
0.0
230
1.0
 40
0.314269
 41
1.713437521205014
 42
3.141599952352239
  0
ELLIPSE
  5
8F7
330
A
100
AcDbEntity
  8
0
 62
     6
370
    35
100
AcDbEllipse
 10
165.576736
 20
116.06337
 30
0.0
 11
-2.964996337890625
 21
0.4569244384765625
 31
0.0
210
0.0
220
0.0
230
1.0
 40
0.338489
 41
3.141593422075153
 42
3.193709488367546
  0
ELLIPSE
  5
8F8
330
A
100
AcDbEntity
  8
0
 62
     6
370
    35
100
AcDbEllipse
 10
165.576736
 20
116.06337
 30
0.0
 11
-2.964996337890625
 21
0.4569244384765625
 31
0.0
210
0.0
220
0.0
230
1.0
 40
0.338489
 41
1.622913161571075
 42
3.141593422075153
  0
ELLIPSE
  5
8F9
330
A
100
AcDbEntity
  8
0
 62
     6
370
    35
100
AcDbEllipse
 10
165.576721
 20
115.789749
 30
0.0
 11
-2.174339294433593
 21
0.3350830078125
 31
0.0
210
0.0
220
0.0
230
1.0
 40
0.338489
 41
1.62291316157187
 42
3.141562260933548
  0
ELLIPSE
  5
8FA
330
A
100
AcDbEntity
  8
0
 62
     6
370
    13
100
AcDbEllipse
 10
125.0
 20
121.311478
 30
0.0
 11
-43.19999694824216
 21
0.0
 31
0.0
210
0.0
220
0.0
230
1.0
 40
0.9396930000000001
 41
3.141585174020562
 42
3.249654413251476
  0
ELLIPSE
  5
8FB
330
A
100
AcDbEntity
  8
0
 62
     6
370
    13
100
AcDbEllipse
 10
125.0
 20
121.585098
 30
0.0
 11
-44.0
 21
0.0
 31
0.0
210
0.0
220
0.0
230
1.0
 40
0.9396929999999999
 41
3.259577196925683
 42
3.521376584724836
  0
ELLIPSE
  5
8FC
330
A
100
AcDbEntity
  8
0
 62
     6
370
    35
100
AcDbEllipse
 10
163.078537
 20
135.867966
 30
0.0
 11
-2.761215209960937
 21
-1.17291259765625
 31
0.0
210
0.0
220
0.0
230
1.0
 40
0.3176489999999999
 41
1.436675389624249
 42
3.00747171642072
  0
ELLIPSE
  5
8FD
330
A
100
AcDbEntity
  8
0
 62
     6
370
    35
100
AcDbEllipse
 10
165.714966
 20
126.120193
 30
0.0
 11
-2.976409912109375
 21
-0.375457763671875
 31
0.0
210
0.0
220
0.0
230
0.9999999999999998
 40
0.339642
 41
1.52797921037636
 42
3.098775537172826
  0
LINE
  5
8FE
330
A
100
AcDbEntity
  8
0
 62
     6
 48
0.076955
370
    35
100
AcDbLine
 10
165.864777
 20
139.991241
 30
0.0
 11
165.864777
 21
136.913055
 31
0.0
  0
LINE
  5
8FF
330
A
100
AcDbEntity
  8
0
 62
     6
 48
0.079845
370
    35
100
AcDbLine
 10
165.1217649999999
 20
139.554565
 30
0.0
 11
165.1217649999999
 21
136.360748
 31
0.0
  0
LINE
  5
900
330
A
100
AcDbEntity
  8
0
 62
     6
 48
0.021546
370
    35
100
AcDbLine
 10
165.864777
 20
139.991241
 30
0.0
 11
165.1217649999999
 21
139.554565
 31
0.0
  0
ELLIPSE
  5
901
330
A
100
AcDbEntity
  8
0
 62
     6
370
    35
100
AcDbEllipse
 10
125.0
 20
124.50531
 30
0.0
 11
-43.19999694824216
 21
0.0
 31
0.0
210
0.0
220
0.0
230
1.0
 40
0.9396930000000001
 41
3.521376584724832
 42
3.757959166487628
  0
LINE
  5
902
330
A
100
AcDbEntity
  8
0
 62
     6
 48
0.076954
370
    35
100
AcDbLine
 10
152.2341
 20
157.137833
 30
0.0
 11
152.2341
 21
154.059662
 31
0.0
  0
ELLIPSE
  5
903
330
A
100
AcDbEntity
  8
0
 62
     6
370
    35
100
AcDbEllipse
 10
150.377228
 20
151.84549
 30
0.0
 11
-1.78535461425781
 21
-2.410919189453125
 31
0.0
210
0.0
220
0.0
230
1.0
 40
0.211696
 41
1.292351440164577
 42
2.863147766961049
  0
LINE
  5
904
330
A
100
AcDbEntity
  8
0
 62
     6
 48
0.079845
370
    35
100
AcDbLine
 10
151.738922
 20
156.38942
 30
0.0
 11
151.738922
 21
153.195602
 31
0.0
  0
LINE
  5
905
330
A
100
AcDbEntity
  8
0
 62
     6
 48
0.022435
370
    35
100
AcDbLine
 10
152.2341
 20
157.137833
 30
0.0
 11
151.738922
 21
156.38942
 31
0.0
  0
ELLIPSE
  5
906
330
A
100
AcDbEntity
  8
0
 62
     6
370
    35
100
AcDbEllipse
 10
125.0
 20
124.50531
 30
0.0
 11
-43.19999694824216
 21
0.0
 31
0.0
210
0.0
220
0.0
230
1.0
 40
0.9396930000000001
 41
4.044975360323141
 42
4.298786260697123
  0
LINE
  5
907
330
A
100
AcDbEntity
  8
0
 62
     6
 48
0.076955
370
    35
100
AcDbLine
 10
131.306061
 20
165.582916
 30
0.0
 11
131.306061
 21
162.50473
 31
0.0
  0
ELLIPSE
  5
908
330
A
100
AcDbEntity
  8
0
 62
     6
370
    35
100
AcDbEllipse
 10
130.876099
 20
159.714752
 30
0.0
 11
-0.4045181274414063
 21
-2.972610473632812
 31
0.0
210
0.0
220
0.0
230
0.9999999999999998
 40
0.049018
 41
1.225052398620229
 42
2.79584872541669
  0
LINE
  5
909
330
A
100
AcDbEntity
  8
0
 62
     6
 48
0.079845
370
    35
100
AcDbLine
 10
131.191406
 20
164.680939
 30
0.0
 11
131.191406
 21
161.487122
 31
0.0
  0
LINE
  5
90A
330
A
100
AcDbEntity
  8
0
 62
     7
 48
0.022731
370
    35
100
AcDbLine
 10
131.306061
 20
165.582916
 30
0.0
 11
131.191406
 21
164.680939
 31
0.0
  0
ELLIPSE
  5
90B
330
A
100
AcDbEntity
  8
0
 62
     6
370
    35
100
AcDbEllipse
 10
125.0
 20
124.50531
 30
0.0
 11
-43.19999694824216
 21
0.0
 31
0.0
210
0.0
220
0.0
230
1.0
 40
0.9396930000000001
 41
4.568574135921451
 42
4.830373523720603
  0
LINE
  5
90C
330
A
100
AcDbEntity
  8
0
 62
     6
 48
0.079846
370
    35
100
AcDbLine
 10
119.914886
 20
164.81781
 30
0.0
 11
119.914886
 21
161.623978
 31
0.0
  0
LINE
  5
90D
330
A
100
AcDbEntity
  8
0
 62
     6
 48
0.076955
370
    35
100
AcDbLine
 10
108.688324
 20
159.985413
 30
0.0
 11
108.688324
 21
163.063599
 31
0.0
  0
ELLIPSE
  5
90E
330
A
100
AcDbEntity
  8
0
 62
     6
370
    35
100
AcDbEllipse
 10
109.800491
 20
157.3672179999999
 30
0.0
 11
1.0535888671875
 21
-2.80889892578125
 31
0.0
210
0.0
220
0.0
230
1.0
 40
0.126794
 41
3.467569124089705
 42
5.038365450874856
  0
ELLIPSE
  5
90F
330
A
100
AcDbEntity
  8
0
 62
     6
370
    35
100
AcDbEllipse
 10
125.0
 20
124.50531
 30
0.0
 11
-43.19999694824216
 21
0.0
 31
0.0
210
0.0
220
0.0
230
1.0
 40
0.9396930000000001
 41
5.099595926040334
 42
5.353972299318893
  0
LINE
  5
910
330
A
100
AcDbEntity
  8
0
 62
     6
 48
0.079846
370
    35
100
AcDbLine
 10
99.146324
 20
157.02774
 30
0.0
 11
99.146324
 21
153.833908
 31
0.0
  0
LINE
  5
911
330
A
100
AcDbEntity
  8
0
 62
     6
 48
0.076955
370
    35
100
AcDbLine
 10
90.441292
 20
150.254959
 30
0.0
 11
90.441292
 21
147.176773
 31
0.0
  0
ELLIPSE
  5
912
330
A
100
AcDbEntity
  8
0
 62
     6
370
    35
100
AcDbEllipse
 10
125.0
 20
124.50531
 30
0.0
 11
-43.19999694824216
 21
0.0
 31
0.0
210
0.0
220
0.0
230
1.0
 40
0.9396930000000001
 41
5.639632785161656
 42
5.877571074917183
  0
LINE
  5
913
330
A
100
AcDbEntity
  8
0
 62
     6
 48
0.079845
370
    35
100
AcDbLine
 10
85.30523700000001
 20
140.5233
 30
0.0
 11
85.30523700000001
 21
137.329483
 31
0.0
  0
LINE
  5
914
330
A
100
AcDbEntity
  8
0
 62
     6
 48
0.076954
370
    35
100
AcDbLine
 10
81.454239
 20
130.589035
 30
0.0
 11
81.454239
 21
127.510857
 31
0.0
  0
ELLIPSE
  5
915
330
A
100
AcDbEntity
  8
0
 62
     6
370
    35
100
AcDbEllipse
 10
125.0
 20
124.50531
 30
0.0
 11
-43.19999694824216
 21
0.0
 31
0.0
210
0.0
220
0.0
230
1.0
 40
0.9396930000000001
 41
6.22352832795237
 42
6.283177827610383
  0
ELLIPSE
  5
916
330
A
100
AcDbEntity
  8
0
 62
     6
370
    35
100
AcDbEllipse
 10
99.62278000000001
 20
91.32470699999997
 30
0.0
 11
1.78535461425781
 21
2.410919189453125
 31
0.0
210
0.0
220
0.0
230
1.0
 40
0.211696
 41
3.141596486188076
 42
4.433944093757512
  0
ELLIPSE
  5
917
330
A
100
AcDbEntity
  8
0
 62
     6
370
    35
100
AcDbEllipse
 10
119.123894
 20
83.455437
 30
0.0
 11
0.4045181274414063
 21
2.972610473632812
 31
0.0
210
0.0
220
0.0
230
0.9999999999999998
 40
0.049018
 41
3.141601736397388
 42
4.366645052213158
  0
LINE
  5
918
330
A
100
AcDbEntity
  8
0
 62
     6
 48
0.01034
370
    35
100
AcDbLine
 10
141.311676
 20
83.59836599999999
 30
0.0
 11
141.311676
 21
83.18477599999999
 31
0.0
  0
ELLIPSE
  5
919
330
A
100
AcDbEntity
  8
0
 62
     6
370
    35
100
AcDbEllipse
 10
140.199509
 20
85.802986
 30
0.0
 11
-1.053596496582031
 21
2.808914184570312
 31
0.0
210
0.0
220
0.0
230
1.0
 40
0.126794
 41
1.89677435180882
 42
3.141568652225353
  0
ELLIPSE
  5
91A
330
A
100
AcDbEntity
  8
0
 62
     6
370
    35
100
AcDbEllipse
 10
140.199509
 20
85.802986
 30
0.0
 11
-1.053596496582031
 21
2.808914184570312
 31
0.0
210
0.0
220
0.0
230
1.0
 40
0.126794
 41
3.141568652225353
 42
3.467567569571806
  0
ELLIPSE
  5
91B
330
A
100
AcDbEntity
  8
0
 62
     6
370
    13
100
AcDbEllipse
 10
125.0
 20
121.585098
 30
0.0
 11
-44.0
 21
0.0
 31
0.0
210
0.0
220
0.0
230
1.0
 40
0.9396929999999999
 41
4.306774748122299
 42
4.568574135921453
  0
LINE
  5
91C
330
A
100
AcDbEntity
  8
0
 62
     6
 48
0.076955
370
    35
100
AcDbLine
 10
142.361664
 20
162.654907
 30
0.0
 11
142.361664
 21
159.576721
 31
0.0
  0
ELLIPSE
  5
91D
330
A
100
AcDbEntity
  8
0
 62
     6
370
    35
100
AcDbEllipse
 10
125.0
 20
124.663277
 30
0.0
 11
-44.0
 21
0.0
 31
0.0
210
0.0
220
0.0
230
1.0
 40
0.9396929999999999
 41
4.044975360322665
 42
4.306774748121845
  0
ELLIPSE
  5
91E
330
A
100
AcDbEntity
  8
0
 62
     6
370
    13
100
AcDbEllipse
 10
125.0
 20
121.585098
 30
0.0
 11
-44.0
 21
0.0
 31
0.0
210
0.0
220
0.0
230
1.0
 40
0.9396929999999999
 41
3.783175972523988
 42
4.044975360323141
  0
LINE
  5
91F
330
A
100
AcDbEntity
  8
0
 62
     6
 48
0.076955
370
    35
100
AcDbLine
 10
160.250565
 20
149.407684
 30
0.0
 11
160.250565
 21
146.329498
 31
0.0
  0
ELLIPSE
  5
920
330
A
100
AcDbEntity
  8
0
 62
     6
370
    35
100
AcDbEllipse
 10
125.0
 20
124.663277
 30
0.0
 11
-44.0
 21
0.0
 31
0.0
210
0.0
220
0.0
230
1.0
 40
0.9396929999999999
 41
3.521376584724314
 42
3.783175972523488
  0
LINE
  5
921
330
A
100
AcDbEntity
  8
0
 62
     6
 48
0.076954
370
    35
100
AcDbLine
 10
168.694107
 20
129.530212
 30
0.0
 11
168.694107
 21
126.452034
 31
0.0
  0
ELLIPSE
  5
922
330
A
100
AcDbEntity
  8
0
 62
     6
370
    35
100
AcDbEllipse
 10
125.0
 20
124.663277
 30
0.0
 11
-44.0
 21
0.0
 31
0.0
210
0.0
220
0.0
230
1.0
 40
0.9396929999999999
 41
2.997777809125971
 42
3.141554992780953
  0
ELLIPSE
  5
923
330
A
100
AcDbEntity
  8
0
 62
     6
370
    35
100
AcDbEllipse
 10
125.0
 20
124.663277
 30
0.0
 11
-44.0
 21
0.0
 31
0.0
210
0.0
220
0.0
230
1.0
 40
0.9396929999999999
 41
3.141554992780953
 42
3.259577196925139
  0
LINE
  5
924
330
A
100
AcDbEntity
  8
0
 62
     6
 48
0.076955
370
    35
100
AcDbLine
 10
168.545761
 20
118.737518
 30
0.0
 11
168.545761
 21
115.659332
 31
0.0
  0
LINE
  5
925
330
A
100
AcDbEntity
  8
0
 62
     6
 48
0.021982
370
    35
100
AcDbLine
 10
159.558716
 20
96.872688
 30
0.0
 11
159.558716
 21
95.99342300000001
 31
0.0
  0
ELLIPSE
  5
926
330
A
100
AcDbEntity
  8
0
 62
     6
370
    35
100
AcDbEllipse
 10
125.0
 20
126.373383
 30
0.0
 11
-44.0
 21
0.0
 31
0.0
210
0.0
220
0.0
230
1.0
 40
0.9396929999999999
 41
3.141554992780957
 42
3.521376584724832
  0
ELLIPSE
  5
927
330
A
100
AcDbEntity
  8
0
 62
     6
370
    35
100
AcDbEllipse
 10
125.0
 20
126.373383
 30
0.0
 11
-44.0
 21
0.0
 31
0.0
210
0.0
220
0.0
230
1.0
 40
0.9396929999999999
 41
3.521376584724832
 42
5.09217291151975
  0
ELLIPSE
  5
928
330
A
100
AcDbEntity
  8
0
 62
     6
370
    13
100
AcDbEllipse
 10
125.0
 20
121.585098
 30
0.0
 11
-44.0
 21
0.0
 31
0.0
210
0.0
220
0.0
230
1.0
 40
0.9396929999999999
 41
4.830373523720603
 42
5.09217291151975
  0
LINE
  5
929
330
A
100
AcDbEntity
  8
0
 62
     6
 48
0.076954
370
    35
100
AcDbLine
 10
119.820717
 20
165.722305
 30
0.0
 11
119.820717
 21
162.644135
 31
0.0
  0
ELLIPSE
  5
92A
330
A
100
AcDbEntity
  8
0
 62
     6
370
    35
100
AcDbEllipse
 10
125.0
 20
124.663277
 30
0.0
 11
-44.0
 21
0.0
 31
0.0
210
0.0
220
0.0
230
1.0
 40
0.9396929999999999
 41
4.568574135921018
 42
4.830373523720191
  0
LINE
  5
92B
330
A
100
AcDbEntity
  8
0
 62
     6
 48
0.010871
370
    35
100
AcDbLine
 10
168.545761
 20
118.737518
 30
0.0
 11
168.111801
 21
118.709984
 31
0.0
  0
ELLIPSE
  5
92C
330
A
100
AcDbEntity
  8
0
 62
     6
370
    35
100
AcDbEllipse
 10
125.0
 20
124.50531
 30
0.0
 11
-43.19999694824216
 21
0.0
 31
0.0
210
0.0
220
0.0
230
1.0
 40
0.9396930000000001
 41
3.141585174020589
 42
3.173927741650067
  0
ELLIPSE
  5
92D
330
A
100
AcDbEntity
  8
0
 62
     6
370
    35
100
AcDbEllipse
 10
125.0
 20
126.373383
 30
0.0
 11
-44.0
 21
0.0
 31
0.0
210
0.0
220
0.0
230
1.0
 40
0.9396929999999999
 41
5.09217291151975
 42
6.283147646370752
  0
ELLIPSE
  5
92E
330
A
100
AcDbEntity
  8
0
 62
     6
370
    35
100
AcDbEllipse
 10
125.0
 20
124.663277
 30
0.0
 11
-44.0
 21
0.0
 31
0.0
210
0.0
220
0.0
230
1.0
 40
0.9396929999999999
 41
6.139370462716802
 42
6.283147646370749
  0
ELLIPSE
  5
92F
330
A
100
AcDbEntity
  8
0
 62
     6
370
    35
100
AcDbEllipse
 10
125.0
 20
124.663277
 30
0.0
 11
-44.0
 21
0.0
 31
0.0
210
0.0
220
0.0
230
1.0
 40
0.9396929999999999
 41
6.283147646370749
 42
6.401169850515972
  0
LINE
  5
930
330
A
100
AcDbEntity
  8
0
 62
     6
 48
0.013205
370
    35
100
AcDbLine
 10
81.30589300000002
 20
119.796341
 30
0.0
 11
81.832077
 21
119.75032
 31
0.0
  0
ELLIPSE
  5
931
330
A
100
AcDbEntity
  8
0
 62
     6
370
    35
100
AcDbEllipse
 10
125.0
 20
124.663277
 30
0.0
 11
-44.0
 21
0.0
 31
0.0
210
0.0
220
0.0
230
1.0
 40
0.9396929999999999
 41
5.615771687118471
 42
5.877571074917637
  0
LINE
  5
932
330
A
100
AcDbEntity
  8
0
 62
     6
 48
0.021608
370
    35
100
AcDbLine
 10
84.570152
 20
140.977905
 30
0.0
 11
85.30523700000001
 21
140.5233
 31
0.0
  0
ELLIPSE
  5
933
330
A
100
AcDbEntity
  8
0
 62
     6
370
    35
100
AcDbEllipse
 10
125.0
 20
124.663277
 30
0.0
 11
-44.0
 21
0.0
 31
0.0
210
0.0
220
0.0
230
1.0
 40
0.9396929999999999
 41
5.092172911520143
 42
5.353972299319306
  0
LINE
  5
934
330
A
100
AcDbEntity
  8
0
 62
     6
 48
0.022461
370
    35
100
AcDbLine
 10
98.66755699999998
 20
157.787979
 30
0.0
 11
99.146324
 21
157.02774
 31
0.0
  0
LINE
  5
935
330
A
100
AcDbEntity
  8
0
 62
     6
 48
0.022735
370
    35
100
AcDbLine
 10
119.820717
 20
165.722305
 30
0.0
 11
119.914886
 21
164.81781
 31
0.0
  0
ELLIPSE
  5
936
330
A
100
AcDbEntity
  8
0
 62
     6
370
    35
100
AcDbEllipse
 10
129.826157
 20
83.32554599999998
 30
0.0
 11
-0.3321075439453125
 21
2.9815673828125
 31
0.0
210
0.0
220
0.0
230
1.0
 40
0.04026
 41
1.91762599857304
 42
3.141583593592851
  0
LINE
  5
937
330
A
100
AcDbEntity
  8
0
 62
     6
 48
0.010595
370
    35
100
AcDbLine
 10
107.638336
 20
84.017265
 30
0.0
 11
107.638336
 21
83.593468
 31
0.0
  0
ELLIPSE
  5
938
330
A
100
AcDbEntity
  8
0
 62
     6
370
    35
100
AcDbEllipse
 10
108.82209
 20
86.1838
 30
0.0
 11
1.122634887695312
 21
2.782028198242186
 31
0.0
210
0.0
220
0.0
230
0.9999999999999998
 40
0.134955
 41
2.818848441160185
 42
3.141601544804336
  0
ELLIPSE
  5
939
330
A
100
AcDbEntity
  8
0
 62
     6
370
    35
100
AcDbEllipse
 10
108.82209
 20
86.1838
 30
0.0
 11
1.122634887695312
 21
2.782028198242186
 31
0.0
210
0.0
220
0.0
230
0.9999999999999998
 40
0.134955
 41
3.141601544804336
 42
4.389644767956656
  0
LINE
  5
93A
330
A
100
AcDbEntity
  8
0
 62
     6
 48
0.023167
370
    35
100
AcDbLine
 10
89.749435
 20
97.76737199999999
 30
0.0
 11
89.749435
 21
96.84069100000002
 31
0.0
  0
ELLIPSE
  5
93B
330
A
100
AcDbEntity
  8
0
 62
     6
370
    35
100
AcDbEllipse
 10
92.152878
 20
98.527809
 30
0.0
 11
2.348381042480462
 21
1.866836547851558
 31
0.0
210
0.0
220
0.0
230
1.0
 40
0.274009
 41
2.927119482319126
 42
3.141584587741657
  0
ELLIPSE
  5
93C
330
A
100
AcDbEntity
  8
0
 62
     6
370
    35
100
AcDbEllipse
 10
92.152878
 20
98.527809
 30
0.0
 11
2.348381042480462
 21
1.866836547851558
 31
0.0
210
0.0
220
0.0
230
1.0
 40
0.274009
 41
3.141584587741657
 42
4.497915809115593
  0
LINE
  5
93D
330
A
100
AcDbEntity
  8
0
 62
     6
 48
0.076954
370
    35
100
AcDbLine
 10
81.30589300000002
 20
119.796341
 30
0.0
 11
81.30589300000002
 21
116.718163
 31
0.0
  0
LINE
  5
93E
330
A
100
AcDbEntity
  8
0
 62
     6
 48
0.076955
370
    35
100
AcDbLine
 10
84.570152
 20
140.977905
 30
0.0
 11
84.570152
 21
137.899719
 31
0.0
  0
LINE
  5
93F
330
A
100
AcDbEntity
  8
0
 62
     6
 48
0.076955
370
    35
100
AcDbLine
 10
98.66755699999998
 20
157.787979
 30
0.0
 11
98.66755699999998
 21
154.709793
 31
0.0
  0
ELLIPSE
  5
940
330
A
100
AcDbEntity
  8
0
 62
     6
370
    35
100
AcDbEllipse
 10
120.173851
 20
159.84465
 30
0.0
 11
0.3321075439453125
 21
-2.9815673828125
 31
0.0
210
0.0
220
0.0
230
1.0
 40
0.04026
 41
3.488422325369508
 42
5.059218652165967
  0
ELLIPSE
  5
941
330
A
100
AcDbEntity
  8
0
 62
     6
370
    35
100
AcDbEllipse
 10
141.1779169999999
 20
156.986389
 30
0.0
 11
-1.122634887695312
 21
-2.782028198242186
 31
0.0
210
0.0
220
0.0
230
0.9999999999999998
 40
0.134955
 41
1.248052114363721
 42
2.818848441160185
  0
ELLIPSE
  5
942
330
A
100
AcDbEntity
  8
0
 62
     6
370
    35
100
AcDbEllipse
 10
157.847122
 20
144.64238
 30
0.0
 11
-2.348381042480462
 21
-1.866836547851558
 31
0.0
210
0.0
220
0.0
230
1.0
 40
0.274009
 41
1.356323155522662
 42
2.927119482319126
  0
ELLIPSE
  5
948
330
A
100
AcDbEntity
  8
0
 62
     6
370
    13
100
AcDbEllipse
 10
125.0
 20
119.875
 30
0.0
 11
-35.83043670654297
 21
0.0
 31
0.0
210
0.0
220
0.0
230
1.0
 40
0.9396929999999999
 41
1.950580254333539
 42
8.233765526114192
  0
ARC
  5
94A
330
A
100
AcDbEntity
  8
0
 62
     6
370
    35
100
AcDbCircle
 10
120.232788
 20
121.312408
 30
0.0
 40
38.43279600000001
100
AcDbArc
 50
180.000924
 51
187.191706
  0
ARC
  5
94B
330
A
100
AcDbEntity
  8
0
 62
     6
370
    35
100
AcDbCircle
 10
120.651352
 20
121.659172
 30
0.0
 40
39.657712
100
AcDbArc
 50
187.220762
 51
203.053577
  0
ARC
  5
94C
330
A
100
AcDbEntity
  8
0
 62
     6
370
    35
100
AcDbCircle
 10
121.855278
 20
121.918015
 30
0.0
 40
40.17564899999999
100
AcDbArc
 50
203.590854
 51
218.540881
  0
ARC
  5
94D
330
A
100
AcDbEntity
  8
0
 62
     6
370
    35
100
AcDbCircle
 10
124.371658
 20
124.549713
 30
0.0
 40
43.850215
100
AcDbArc
 50
233.817323
 51
248.076122
  0
ARC
  5
94E
330
A
100
AcDbEntity
  8
0
 62
     6
370
    35
100
AcDbCircle
 10
125.000084
 20
126.394196
 30
0.0
 40
45.81013099999998
100
AcDbArc
 50
262.314143
 51
276.305915
  0
ARC
  5
94F
330
A
100
AcDbEntity
  8
0
 62
     6
370
    35
100
AcDbCircle
 10
125.549408
 20
124.696785
 30
0.0
 40
44.016872
100
AcDbArc
 50
290.510332
 51
304.741884
  0
ARC
  5
950
330
A
100
AcDbEntity
  8
0
 62
     6
370
    35
100
AcDbCircle
 10
126.621429
 20
123.449478
 30
0.0
 40
42.95421
100
AcDbArc
 50
305.001876
 51
319.949342
  0
ARC
  5
951
330
A
100
AcDbEntity
  8
0
 62
     6
370
    35
100
AcDbCircle
 10
128.009323
 20
122.002258
 30
0.0
 40
40.334856
100
AcDbArc
 50
319.955561
 51
334.873293
  0
ARC
  5
952
330
A
100
AcDbEntity
  8
0
 62
     6
370
    35
100
AcDbCircle
 10
129.259201
 20
121.684509
 30
0.0
 40
39.75049699999999
100
AcDbArc
 50
335.398436
 51
351.204537
  0
ARC
  5
953
330
A
100
AcDbEntity
  8
0
 62
     6
370
    35
100
AcDbCircle
 10
129.752518
 20
121.313217
 30
0.0
 40
38.447507
100
AcDbArc
 50
351.235224
 51
359.996967
  0
LINE
  5
954
330
A
100
AcDbEntity
  8
0
 62
     6
 48
0.079846
370
    35
100
AcDbLine
 10
81.80000300000001
 20
124.505608
 30
0.0
 11
81.80000300000001
 21
121.311783
 31
0.0
  0
LINE
  5
955
330
A
100
AcDbEntity
  8
0
 62
     6
 48
0.042753
370
    35
100
AcDbLine
 10
169.0
 20
124.66172
 30
0.0
 11
169.0
 21
126.371826
 31
0.0
  0
LINE
  5
956
330
A
100
AcDbEntity
  8
0
 62
     6
 48
0.079846
370
    35
100
AcDbLine
 10
168.199997
 20
124.505005
 30
0.0
 11
168.199997
 21
121.311172
 31
0.0
  0
LINE
  5
957
330
A
100
AcDbEntity
  8
0
 62
     6
 48
0.042753
370
    35
100
AcDbLine
 10
81.0
 20
126.374939
 30
0.0
 11
81.0
 21
124.664833
 31
0.0
  0
ARC
  5
958
330
A
100
AcDbEntity
  8
0
 62
     6
370
    35
100
AcDbCircle
 10
125.069641
 20
126.212692
 30
0.0
 40
46.149703
100
AcDbArc
 50
276.330435
 51
290.528698
  0
ARC
  5
959
330
A
100
AcDbEntity
  8
0
 62
     6
370
    35
100
AcDbCircle
 10
124.90654
 20
126.11747
 30
0.0
 40
46.051709
100
AcDbArc
 50
248.0590390000001
 51
262.278899
  0
ARC
  5
95A
330
A
100
AcDbEntity
  8
0
 62
     6
370
    35
100
AcDbCircle
 10
123.247627
 20
123.31015
 30
0.0
 40
42.763356
100
AcDbArc
 50
218.54961
 51
233.544976
  0
LINE
  5
95F
330
A
100
AcDbEntity
  8
0
 62
     7
 48
0.086205
370
    35
100
AcDbLine
 10
140.5
 20
171.968658
 30
0.0
 11
140.5
 21
175.41684
 31
0.0
  0
LINE
  5
960
330
A
100
AcDbEntity
  8
0
 62
     7
 48
0.00625
370
    35
100
AcDbLine
 10
112.0
 20
170.91684
 30
0.0
 11
112.25
 21
170.91684
 31
0.0
  0
LINE
  5
961
330
A
100
AcDbEntity
  8
0
 62
     7
 48
0.00625
370
    35
100
AcDbLine
 10
137.75
 20
170.91684
 30
0.0
 11
138.0
 21
170.91684
 31
0.0
  0
LINE
  5
9FD
330
A
100
AcDbEntity
  8
0
 62
     7
 48
0.006271
370
    13
100
AcDbLine
 10
81.65132099999999
 20
271.990051
 30
0.0
 11
81.84347500000001
 21
271.828827
 31
0.0
  0
ARC
  5
9FE
330
A
100
AcDbEntity
  8
0
 62
     7
370
    13
100
AcDbCircle
 10
95.814514
 20
273.332001
 30
0.0
 40
14.227286
100
AcDbArc
 50
183.3899839999999
 51
185.4124939999999
  0
ARC
  5
9FF
330
A
100
AcDbEntity
  8
0
 62
     7
370
    13
100
AcDbCircle
 10
89.64828500000001
 20
291.805603
 30
0.0
 40
14.32858
100
AcDbArc
 50
265.473452
 51
267.4860560000004
  0
LINE
  5
A00
330
A
100
AcDbEntity
  8
0
 62
     7
 48
0.027251
370
    13
100
AcDbLine
 10
83.88855000000003
 20
272.892181
 30
0.0
 11
83.88855000000003
 21
273.982239
 31
0.0
  0
ARC
  5
A01
330
A
100
AcDbEntity
  8
0
 62
     7
370
    13
100
AcDbCircle
 10
83.49999999999999
 20
277.909607
 30
0.0
 40
3.946538999999998
100
AcDbArc
 50
275.6500439999992
 51
354.34995
  0
LINE
  5
A02
330
A
100
AcDbEntity
  8
0
 62
     7
 48
0.027251
370
    13
100
AcDbLine
 10
88.51741000000002
 20
277.521057
 30
0.0
 11
87.42736800000001
 21
277.521057
 31
0.0
  0
ARC
  5
A03
330
A
100
AcDbEntity
  8
0
 62
     7
370
    13
100
AcDbCircle
 10
69.6241
 20
271.762878
 30
0.0
 40
14.308426
100
AcDbArc
 50
2.511140999999958
 51
4.526579999999933
  0
LINE
  5
A04
330
A
100
AcDbEntity
  8
0
 62
     7
 48
0.007474
370
    13
100
AcDbLine
 10
83.91812099999999
 20
272.389771
 30
0.0
 11
83.725967
 21
272.160767
 31
0.0
  0
LINE
  5
A05
330
A
100
AcDbEntity
  8
0
 62
     7
 48
0.007474
370
    13
100
AcDbLine
 10
89.01983599999999
 20
277.491455
 30
0.0
 11
89.24884
 21
277.683624
 31
0.0
  0
CIRCLE
  5
A06
330
A
100
AcDbEntity
  8
0
 62
     7
370
    35
100
AcDbCircle
 10
83.49999999999999
 20
277.909607
 30
0.0
 40
2.25
  0
LINE
  5
A07
330
A
100
AcDbEntity
  8
0
 62
     7
 48
0.047788
370
    35
100
AcDbLine
 10
81.84347500000001
 20
271.828827
 30
0.0
 11
83.725967
 21
272.160767
 31
0.0
  0
LINE
  5
A08
330
A
100
AcDbEntity
  8
0
 62
     7
 48
0.047788
370
    35
100
AcDbLine
 10
89.58076499999998
 20
279.566101
 30
0.0
 11
89.24884
 21
277.683624
 31
0.0
  0
LINE
  5
A09
330
A
100
AcDbEntity
  8
0
 62
     7
 48
0.006271
370
    13
100
AcDbLine
 10
89.58076499999998
 20
279.566101
 30
0.0
 11
89.41952499999997
 21
279.75827
 31
0.0
  0
ARC
  5
A0A
330
A
100
AcDbEntity
  8
0
 62
     7
370
    13
100
AcDbCircle
 10
88.07759099999998
 20
265.595093
 30
0.0
 40
14.227286
100
AcDbArc
 50
84.58750300000017
 51
86.61001799999935
  0
LINE
  5
A0B
330
A
100
AcDbEntity
  8
0
 62
     7
 48
0.04884
370
    13
100
AcDbLine
 10
86.96533200000002
 20
279.798126
 30
0.0
 11
88.91891499999998
 21
279.798126
 31
0.0
  0
ARC
  5
A0C
330
A
100
AcDbEntity
  8
0
 62
     7
370
    13
100
AcDbCircle
 10
83.49999999999999
 20
277.909607
 30
0.0
 40
3.946538999999998
100
AcDbArc
 50
28.58956900000007
 51
241.4104360000005
  0
LINE
  5
A0D
330
A
100
AcDbEntity
  8
0
 62
     7
 48
0.04884
370
    13
100
AcDbLine
 10
81.61144999999997
 20
274.444244
 30
0.0
 11
81.61144999999997
 21
272.490662
 31
0.0
  0
ARC
  5
A0E
330
A
100
AcDbEntity
  8
0
 62
     5
370
    13
100
AcDbCircle
 10
-218.26413
 20
328.653748
 30
0.0
 40
312.308493
100
AcDbArc
 50
350.4585449999999
 51
351.3819049999999
  0
ARC
  5
A0F
330
A
100
AcDbEntity
  8
0
 62
     5
370
    13
100
AcDbCircle
 10
89.266281
 20
282.045837
 30
0.0
 40
1.265070999999998
100
AcDbArc
 50
351.334831
 51
58.02754700000047
  0
LINE
  5
A10
330
A
100
AcDbEntity
  8
0
 62
     5
 48
0.160898
370
    13
100
AcDbLine
 10
83.49999999999999
 20
283.118652
 30
0.0
 11
89.935913
 21
283.118652
 31
0.0
  0
ARC
  5
A11
330
A
100
AcDbEntity
  8
0
 62
     5
370
    13
100
AcDbCircle
 10
83.49584999999997
 20
278.030975
 30
0.0
 40
5.087844999999997
100
AcDbArc
 50
89.94944700000074
 51
124.0178089999998
  0
ARC
  5
A12
330
A
100
AcDbEntity
  8
0
 62
     5
370
    13
100
AcDbCircle
 10
83.481415
 20
277.773621
 30
0.0
 40
5.295637999999998
100
AcDbArc
 50
122.3301860000003
 51
125.2081609999994
  0
ARC
  5
A13
330
A
100
AcDbEntity
  8
0
 62
     5
370
    13
100
AcDbCircle
 10
83.419693
 20
277.883453
 30
0.0
 40
5.170319999999998
100
AcDbArc
 50
125.3566630000005
 51
168.7938149999998
  0
LINE
  5
A14
330
A
100
AcDbEntity
  8
0
 62
     5
 48
0.004137
370
    13
100
AcDbLine
 10
78.318298
 20
278.725403
 30
0.0
 11
78.34790000000002
 21
278.888214
 31
0.0
  0
ARC
  5
A15
330
A
100
AcDbEntity
  8
0
 62
     5
370
    13
100
AcDbCircle
 10
83.09860200000001
 20
277.918854
 30
0.0
 40
4.847855
100
AcDbArc
 50
170.4230590000001
 51
179.303013
  0
ARC
  5
A16
330
A
100
AcDbEntity
  8
0
 62
     5
370
    13
100
AcDbCircle
 10
548.8164369999998
 20
272.9887080000001
 30
0.0
 40
470.5917389999998
100
AcDbArc
 50
179.392576
 51
180.0142669999999
  0
LINE
  5
A17
330
A
100
AcDbEntity
  8
0
 62
     5
 48
0.035903
370
    13
100
AcDbLine
 10
78.22470100000002
 20
271.435394
 30
0.0
 11
78.22470100000002
 21
272.871521
 31
0.0
  0
LINE
  5
A22
330
A
100
AcDbEntity
  8
0
 62
     5
 48
0.123584
370
    13
100
AcDbLine
 10
79.731583
 20
270.813751
 30
0.0
 11
84.59982299999998
 21
271.67218
 31
0.0
  0
ARC
  5
A23
330
A
100
AcDbEntity
  8
0
 62
     5
370
    13
100
AcDbCircle
 10
83.49999999999999
 20
277.909607
 30
0.0
 40
6.333648999999997
100
AcDbArc
 50
280.0000010000005
 51
307.3029509999999
  0
ARC
  5
A24
330
A
100
AcDbEntity
  8
0
 62
     5
370
    13
100
AcDbCircle
 10
83.39953600000002
 20
277.927673
 30
0.0
 40
6.409926999999997
100
AcDbArc
 50
307.9194300000005
 51
350.6390799999999
  0
LINE
  5
A2E
330
A
100
AcDbEntity
  8
0
 62
     5
100
AcDbLine
 10
166.5
 20
285.108154
 30
0.0
 11
166.5
 21
287.909607
 31
0.0
  0
LINE
  5
A2F
330
A
100
AcDbEntity
  8
0
 62
     5
100
AcDbLine
 10
173.698547
 20
277.909607
 30
0.0
 11
176.5
 21
277.909607
 31
0.0
  0
LINE
  5
A9D
330
A
100
AcDbEntity
  8
0
 62
     5
370
    13
100
AcDbLine
 10
79.731583
 20
270.813751
 30
0.0
 11
79.38149999999997
 21
270.796722
 31
0.0
  0
LINE
  5
A9E
330
A
100
AcDbEntity
  8
0
 62
     5
370
    13
100
AcDbLine
 10
79.38149999999997
 20
270.796722
 30
0.0
 11
79.07946799999997
 21
270.8443299999999
 31
0.0
  0
LINE
  5
A9F
330
A
100
AcDbEntity
  8
0
 62
     5
370
    13
100
AcDbLine
 10
79.07946799999997
 20
270.8443299999999
 30
0.0
 11
78.80168199999999
 21
270.944427
 31
0.0
  0
LINE
  5
AA0
330
A
100
AcDbEntity
  8
0
 62
     5
370
    13
100
AcDbLine
 10
78.80168199999999
 20
270.944427
 30
0.0
 11
78.57583600000002
 21
271.076233
 31
0.0
  0
LINE
  5
AA1
330
A
100
AcDbEntity
  8
0
 62
     5
370
    13
100
AcDbLine
 10
78.57583600000002
 20
271.076233
 30
0.0
 11
78.382767
 21
271.240753
 31
0.0
  0
LINE
  5
AA2
330
A
100
AcDbEntity
  8
0
 62
     5
370
    13
100
AcDbLine
 10
78.382767
 20
271.240753
 30
0.0
 11
78.22470100000002
 21
271.435394
 31
0.0
  0
LINE
  5
AC5
330
A
100
AcDbEntity
  8
0
 62
     7
370
    35
100
AcDbLine
 10
84.99496500000002
 20
73.152725
 30
0.0
 11
84.993134
 21
73.151756
 31
0.0
  0
LINE
  5
AC6
330
A
100
AcDbEntity
  8
0
 62
     7
370
    35
100
AcDbLine
 10
84.993134
 20
73.151756
 30
0.0
 11
84.984932
 21
73.149849
 31
0.0
  0
LINE
  5
AC7
330
A
100
AcDbEntity
  8
0
 62
     7
370
    35
100
AcDbLine
 10
84.984932
 20
73.149849
 30
0.0
 11
84.933662
 21
73.144295
 31
0.0
  0
LINE
  5
AC8
330
A
100
AcDbEntity
  8
0
 62
     7
370
    35
100
AcDbLine
 10
84.933662
 20
73.144295
 30
0.0
 11
84.691124
 21
73.129829
 31
0.0
  0
LINE
  5
AC9
330
A
100
AcDbEntity
  8
0
 62
     7
370
    35
100
AcDbLine
 10
165.005035
 20
73.152725
 30
0.0
 11
165.006866
 21
73.151756
 31
0.0
  0
LINE
  5
ACA
330
A
100
AcDbEntity
  8
0
 62
     7
370
    35
100
AcDbLine
 10
165.006866
 20
73.151756
 30
0.0
 11
165.015076
 21
73.149849
 31
0.0
  0
LINE
  5
ACB
330
A
100
AcDbEntity
  8
0
 62
     7
370
    35
100
AcDbLine
 10
165.015076
 20
73.149849
 30
0.0
 11
165.066345
 21
73.144295
 31
0.0
  0
LINE
  5
ACC
330
A
100
AcDbEntity
  8
0
 62
     7
370
    35
100
AcDbLine
 10
165.066345
 20
73.144295
 30
0.0
 11
165.308868
 21
73.129829
 31
0.0
  0
LINE
  5
ACD
330
A
100
AcDbEntity
  8
0
 62
     5
370
    13
100
AcDbLine
 10
171.668945
 20
83.527023
 30
0.0
 11
171.475311
 21
83.71143299999998
 31
0.0
  0
LINE
  5
ACE
330
A
100
AcDbEntity
  8
0
 62
     5
370
    13
100
AcDbLine
 10
171.475311
 20
83.71143299999998
 30
0.0
 11
171.352249
 21
83.790092
 31
0.0
  0
LINE
  5
ACF
330
A
100
AcDbEntity
  8
0
 62
     5
370
    13
100
AcDbLine
 10
171.352249
 20
83.790092
 30
0.0
 11
171.210403
 21
83.856163
 31
0.0
  0
LINE
  5
AD0
330
A
100
AcDbEntity
  8
0
 62
     5
370
    13
100
AcDbLine
 10
171.210403
 20
83.856163
 30
0.0
 11
171.0190889999999
 21
83.91247599999998
 31
0.0
  0
LINE
  5
AD1
330
A
100
AcDbEntity
  8
0
 62
     5
370
    13
100
AcDbLine
 10
171.0190889999999
 20
83.91247599999998
 30
0.0
 11
170.80629
 21
83.937691
 31
0.0
  0
LINE
  5
AD2
330
A
100
AcDbEntity
  8
0
 62
     5
370
    13
100
AcDbLine
 10
170.80629
 20
83.937691
 30
0.0
 11
170.621704
 21
83.93006099999999
 31
0.0
  0
LINE
  5
AE2
330
A
100
AcDbEntity
  8
0
 62
     5
370
    13
100
AcDbLine
 10
78.33107
 20
83.52703899999999
 30
0.0
 11
78.52468899999998
 21
83.711441
 31
0.0
  0
LINE
  5
AE3
330
A
100
AcDbEntity
  8
0
 62
     5
370
    13
100
AcDbLine
 10
78.52468899999998
 20
83.711441
 30
0.0
 11
78.647758
 21
83.790092
 31
0.0
  0
LINE
  5
AE4
330
A
100
AcDbEntity
  8
0
 62
     5
370
    13
100
AcDbLine
 10
78.647758
 20
83.790092
 30
0.0
 11
78.789612
 21
83.85617100000002
 31
0.0
  0
LINE
  5
AE5
330
A
100
AcDbEntity
  8
0
 62
     5
370
    13
100
AcDbLine
 10
78.789612
 20
83.85617100000002
 30
0.0
 11
78.98092700000002
 21
83.91247599999998
 31
0.0
  0
LINE
  5
AE6
330
A
100
AcDbEntity
  8
0
 62
     5
370
    13
100
AcDbLine
 10
78.98092700000002
 20
83.91247599999998
 30
0.0
 11
79.19370999999998
 21
83.937691
 31
0.0
  0
LINE
  5
AE7
330
A
100
AcDbEntity
  8
0
 62
     5
370
    13
100
AcDbLine
 10
79.19370999999998
 20
83.937691
 30
0.0
 11
79.378304
 21
83.93006099999999
 31
0.0
  0
LINE
  5
AE8
330
A
100
AcDbEntity
  8
0
 62
     5
370
    13
100
AcDbLine
 10
170.306229
 20
270.807648
 30
0.0
 11
170.6185
 21
270.796722
 31
0.0
  0
LINE
  5
AE9
330
A
100
AcDbEntity
  8
0
 62
     5
370
    13
100
AcDbLine
 10
170.6185
 20
270.796722
 30
0.0
 11
170.920532
 21
270.8443299999999
 31
0.0
  0
LINE
  5
AEA
330
A
100
AcDbEntity
  8
0
 62
     5
370
    13
100
AcDbLine
 10
170.920532
 20
270.8443299999999
 30
0.0
 11
171.198318
 21
270.944427
 31
0.0
  0
LINE
  5
AEB
330
A
100
AcDbEntity
  8
0
 62
     5
370
    13
100
AcDbLine
 10
171.198318
 20
270.944427
 30
0.0
 11
171.424164
 21
271.076233
 31
0.0
  0
LINE
  5
AEC
330
A
100
AcDbEntity
  8
0
 62
     5
370
    13
100
AcDbLine
 10
171.424164
 20
271.076233
 30
0.0
 11
171.617233
 21
271.240753
 31
0.0
  0
LINE
  5
AED
330
A
100
AcDbEntity
  8
0
 62
     5
370
    13
100
AcDbLine
 10
171.617233
 20
271.240753
 30
0.0
 11
171.775299
 21
271.435394
 31
0.0
  0
LINE
  5
B28
330
A
100
AcDbEntity
  8
0
 62
     6
 48
0.394418
370
    35
100
AcDbLine
 10
112.4873714293926
 20
126.8067614794146
 30
0.0
 11
112.4877834293926
 21
111.0300274794145
 31
0.0
  0
LINE
  5
B29
330
A
100
AcDbEntity
  8
0
 62
     6
 48
0.394418
370
    35
100
AcDbLine
 10
137.4873714293926
 20
126.8073714794145
 30
0.0
 11
137.4877834293926
 21
111.0306384794145
 31
0.0
  0
LINE
  5
B2A
330
A
100
AcDbEntity
  8
0
 62
     6
370
    13
100
AcDbLine
 10
136.4878064293925
 20
110.0910784794145
 30
0.0
 11
136.7494104293926
 21
110.1337874794145
 31
0.0
  0
LINE
  5
B2B
330
A
100
AcDbEntity
  8
0
 62
     6
370
    13
100
AcDbLine
 10
136.7494104293926
 20
110.1337874794145
 30
0.0
 11
136.8833444293926
 21
110.1815474794145
 31
0.0
  0
LINE
  5
B2C
330
A
100
AcDbEntity
  8
0
 62
     6
370
    13
100
AcDbLine
 10
136.8833444293926
 20
110.1815474794145
 30
0.0
 11
137.0153634293926
 21
110.2491134794145
 31
0.0
  0
LINE
  5
B2D
330
A
100
AcDbEntity
  8
0
 62
     6
370
    13
100
AcDbLine
 10
137.0153634293926
 20
110.2491134794145
 30
0.0
 11
137.2152994293926
 21
110.4042644794145
 31
0.0
  0
LINE
  5
B2E
330
A
100
AcDbEntity
  8
0
 62
     6
370
    13
100
AcDbLine
 10
137.2152994293926
 20
110.4042644794145
 30
0.0
 11
137.3715644293926
 21
110.6065354794145
 31
0.0
  0
LINE
  5
B2F
330
A
100
AcDbEntity
  8
0
 62
     6
370
    13
100
AcDbLine
 10
137.3715644293926
 20
110.6065354794145
 30
0.0
 11
137.4601494293927
 21
110.8203034794146
 31
0.0
  0
LINE
  5
B30
330
A
100
AcDbEntity
  8
0
 62
     6
370
    13
100
AcDbLine
 10
137.4601494293927
 20
110.8203034794146
 30
0.0
 11
137.4877834293926
 21
111.0306384794145
 31
0.0
  0
LINE
  5
B31
330
A
100
AcDbEntity
  8
0
 62
     6
370
    13
100
AcDbLine
 10
113.4878214293925
 20
110.0905134794145
 30
0.0
 11
118.7342204293926
 21
109.9757594794145
 31
0.0
  0
LINE
  5
B32
330
A
100
AcDbEntity
  8
0
 62
     6
370
    13
100
AcDbLine
 10
118.7342204293926
 20
109.9757594794145
 30
0.0
 11
122.6623514293926
 21
109.9369794794146
 31
0.0
  0
LINE
  5
B33
330
A
100
AcDbEntity
  8
0
 62
     6
370
    13
100
AcDbLine
 10
122.6623514293926
 20
109.9369794794146
 30
0.0
 11
130.4508219386952
 21
109.9652265049129
 31
0.0
  0
ARC
  5
B34
330
A
100
AcDbEntity
  8
0
 62
     6
370
    13
100
AcDbCircle
 10
125.8806204293926
 20
474.2626784794143
 30
0.0
 40
364.326118
100
AcDbArc
 50
270.7187519999992
 51
271.6683739999999
  0
LINE
  5
B35
330
A
100
AcDbEntity
  8
0
 62
     6
370
    13
100
AcDbLine
 10
112.4877834293926
 20
111.0300274794145
 30
0.0
 11
112.5140124293926
 21
110.8251324794145
 31
0.0
  0
LINE
  5
B36
330
A
100
AcDbEntity
  8
0
 62
     6
370
    13
100
AcDbLine
 10
112.5140124293926
 20
110.8251324794145
 30
0.0
 11
112.5980504293926
 21
110.6164684794145
 31
0.0
  0
LINE
  5
B37
330
A
100
AcDbEntity
  8
0
 62
     6
370
    13
100
AcDbLine
 10
112.5980504293926
 20
110.6164684794145
 30
0.0
 11
112.7524624293926
 21
110.4115584794145
 31
0.0
  0
LINE
  5
B38
330
A
100
AcDbEntity
  8
0
 62
     6
370
    13
100
AcDbLine
 10
112.7524624293926
 20
110.4115584794145
 30
0.0
 11
112.9521464293926
 21
110.2534394794145
 31
0.0
  0
LINE
  5
B39
330
A
100
AcDbEntity
  8
0
 62
     6
370
    13
100
AcDbLine
 10
112.9521464293926
 20
110.2534394794145
 30
0.0
 11
113.0859814293926
 21
110.1836994794145
 31
0.0
  0
LINE
  5
B3A
330
A
100
AcDbEntity
  8
0
 62
     6
370
    13
100
AcDbLine
 10
113.0859814293926
 20
110.1836994794145
 30
0.0
 11
113.2220364293926
 21
110.1344284794145
 31
0.0
  0
LINE
  5
B3B
330
A
100
AcDbEntity
  8
0
 62
     6
370
    13
100
AcDbLine
 10
113.2220364293926
 20
110.1344284794145
 30
0.0
 11
113.4878064293926
 21
110.0905134794145
 31
0.0
  0
LINE
  5
B3D
330
A
100
AcDbEntity
  8
0
 62
     6
370
    35
100
AcDbLine
 10
136.7569554293925
 20
127.6649304794145
 30
0.0
 11
136.9863714293926
 21
127.5857304794145
 31
0.0
  0
LINE
  5
B3E
330
A
100
AcDbEntity
  8
0
 62
     6
370
    35
100
AcDbLine
 10
136.9863714293926
 20
127.5857304794145
 30
0.0
 11
137.2061444293926
 21
127.4369644794145
 31
0.0
  0
LINE
  5
B3F
330
A
100
AcDbEntity
  8
0
 62
     6
370
    35
100
AcDbLine
 10
137.2061444293926
 20
127.4369644794145
 30
0.0
 11
137.3533224293926
 21
127.2632274794145
 31
0.0
  0
LINE
  5
B40
330
A
100
AcDbEntity
  8
0
 62
     6
370
    35
100
AcDbLine
 10
137.3533224293926
 20
127.2632274794145
 30
0.0
 11
137.4573644293926
 21
127.0305234794145
 31
0.0
  0
LINE
  5
B41
330
A
100
AcDbEntity
  8
0
 62
     6
370
    35
100
AcDbLine
 10
137.4573644293926
 20
127.0305234794145
 30
0.0
 11
137.4873714293926
 21
126.8073714794145
 31
0.0
  0
LINE
  5
B47
330
A
100
AcDbEntity
  8
0
 62
     6
370
    35
100
AcDbLine
 10
112.4873714293926
 20
126.8067614794146
 30
0.0
 11
112.5173544293926
 21
127.0299214794145
 31
0.0
  0
LINE
  5
B48
330
A
100
AcDbEntity
  8
0
 62
     6
370
    35
100
AcDbLine
 10
112.5173544293926
 20
127.0299214794145
 30
0.0
 11
112.6213964293926
 21
127.2626324794145
 31
0.0
  0
LINE
  5
B49
330
A
100
AcDbEntity
  8
0
 62
     6
370
    35
100
AcDbLine
 10
112.6213964293926
 20
127.2626324794145
 30
0.0
 11
112.7685604293926
 21
127.4363694794145
 31
0.0
  0
LINE
  5
B4A
330
A
100
AcDbEntity
  8
0
 62
     6
370
    35
100
AcDbLine
 10
112.7685604293926
 20
127.4363694794145
 30
0.0
 11
112.9883174293926
 21
127.5851424794144
 31
0.0
  0
LINE
  5
B4B
330
A
100
AcDbEntity
  8
0
 62
     6
370
    35
100
AcDbLine
 10
112.9883174293926
 20
127.5851424794144
 30
0.0
 11
113.2177334293926
 21
127.6643584794145
 31
0.0
  0
LINE
  5
B4C
330
A
100
AcDbEntity
  8
0
 62
     6
370
    35
100
AcDbLine
 10
113.2177334293926
 20
127.6643584794145
 30
0.0
 11
113.4726764293927
 21
127.6875744794145
 31
0.0
  0
LINE
  5
B77
330
A
100
AcDbEntity
  8
0
 62
     6
100
AcDbLine
 10
113.4726764293927
 20
127.6875744794145
 30
0.0
 11
136.7569554293925
 21
127.6649304794145
 31
0.0
  0
LINE
  5
CB7
330
A
100
AcDbEntity
  8
0
100
AcDbLine
 10
146.5343056082001
 20
280.9662506217571
 30
0.0
 11
103.5228674792001
 21
280.9662506217571
 31
0.0
  0
LINE
  5
CB8
330
A
100
AcDbEntity
  8
0
100
AcDbLine
 10
146.5343056082001
 20
262.9614625677572
 30
0.0
 11
103.5228674792001
 21
262.9614625677572
 31
0.0
  0
ARC
  5
CB9
330
A
100
AcDbEntity
  8
0
100
AcDbCircle
 10
103.5228674792001
 20
279.9659846187572
 30
0.0
 40
1.000266002999999
100
AcDbArc
 50
90.0
 51
180.0
  0
LINE
  5
CBA
330
A
100
AcDbEntity
  8
0
100
AcDbLine
 10
102.5226014762002
 20
279.9659846187572
 30
0.0
 11
102.5226014762002
 21
263.9617285707573
 31
0.0
  0
ARC
  5
CBB
330
A
100
AcDbEntity
  8
0
100
AcDbCircle
 10
103.5228674792001
 20
263.9617285707573
 30
0.0
 40
1.000266002999999
100
AcDbArc
 50
180.0
 51
270.0
  0
ARC
  5
CBC
330
A
100
AcDbEntity
  8
0
100
AcDbCircle
 10
146.5343056082001
 20
279.9659846187572
 30
0.0
 40
1.000266002999999
100
AcDbArc
 50
0.0
 51
90.0
  0
ARC
  5
CBD
330
A
100
AcDbEntity
  8
0
100
AcDbCircle
 10
146.5343056082001
 20
263.9617285707573
 30
0.0
 40
1.000266002999999
100
AcDbArc
 50
270.0
 51
0.0
  0
LINE
  5
CBE
330
A
100
AcDbEntity
  8
0
100
AcDbLine
 10
147.5345716112
 20
279.9659846187572
 30
0.0
 11
147.5345716112
 21
263.9617285707573
 31
0.0
  0
LINE
  5
CCB
330
A
100
AcDbEntity
  8
0
 62
     5
100
AcDbLine
 10
77.11584499999998
 20
205.4461673952571
 30
0.0
 11
172.9413280874001
 21
205.4461673952571
 31
0.0
  0
LINE
  5
CCC
330
A
100
AcDbEntity
  8
0
 62
     5
100
AcDbLine
 10
122.5285865437
 20
205.4461673952571
 30
0.0
 11
122.5285865437001
 21
249.5181239972083
 31
0.0
  0
LINE
  5
CCD
330
A
100
AcDbEntity
  8
0
 62
     5
100
AcDbLine
 10
122.5285865437001
 20
249.5181239972083
 30
0.0
 11
118.5285865437001
 21
249.5181239972083
 31
0.0
  0
LINE
  5
CCE
330
A
100
AcDbEntity
  8
0
 62
     5
100
AcDbLine
 10
118.5285865437001
 20
249.5181239972083
 30
0.0
 11
118.5285865437001
 21
205.4461673952571
 31
0.0
  0
LINE
  5
CCF
330
A
100
AcDbEntity
  8
0
 62
     5
100
AcDbLine
 10
114.5285865437
 20
205.4461673952571
 30
0.0
 11
114.5285865437001
 21
249.5181239972083
 31
0.0
  0
LINE
  5
CD0
330
A
100
AcDbEntity
  8
0
 62
     5
100
AcDbLine
 10
110.5285865437001
 20
249.5181239972083
 30
0.0
 11
110.5285865437001
 21
205.4461673952571
 31
0.0
  0
LINE
  5
CD1
330
A
100
AcDbEntity
  8
0
 62
     5
100
AcDbLine
 10
114.5285865437001
 20
249.5181239972083
 30
0.0
 11
110.5285865437001
 21
249.5181239972083
 31
0.0
  0
LINE
  5
CD2
330
A
100
AcDbEntity
  8
0
 62
     5
100
AcDbLine
 10
94.52858654370013
 20
249.5181239972083
 30
0.0
 11
94.52858654370013
 21
205.4461673952571
 31
0.0
  0
LINE
  5
CD3
330
A
100
AcDbEntity
  8
0
 62
     5
100
AcDbLine
 10
98.52858654370004
 20
205.4461673952571
 30
0.0
 11
98.5285865437001
 21
249.5181239972083
 31
0.0
  0
LINE
  5
CD4
330
A
100
AcDbEntity
  8
0
 62
     5
100
AcDbLine
 10
106.5285865437
 20
205.4461673952571
 30
0.0
 11
106.5285865437001
 21
249.5181239972083
 31
0.0
  0
LINE
  5
CD5
330
A
100
AcDbEntity
  8
0
 62
     5
100
AcDbLine
 10
102.5285865437001
 20
249.5181239972083
 30
0.0
 11
102.5285865437001
 21
205.4461673952571
 31
0.0
  0
LINE
  5
CD6
330
A
100
AcDbEntity
  8
0
 62
     5
100
AcDbLine
 10
98.5285865437001
 20
249.5181239972083
 30
0.0
 11
94.52858654370013
 21
249.5181239972083
 31
0.0
  0
LINE
  5
CD7
330
A
100
AcDbEntity
  8
0
 62
     5
100
AcDbLine
 10
106.5285865437001
 20
249.5181239972083
 30
0.0
 11
102.5285865437001
 21
249.5181239972083
 31
0.0
  0
LINE
  5
CD8
330
A
100
AcDbEntity
  8
0
 62
     5
100
AcDbLine
 10
90.52858654370004
 20
205.4461673952571
 30
0.0
 11
90.52858654370012
 21
249.5181239972083
 31
0.0
  0
LINE
  5
CD9
330
A
100
AcDbEntity
  8
0
 62
     5
100
AcDbLine
 10
86.52858654370012
 20
249.5181239972083
 30
0.0
 11
86.52858654370012
 21
205.4461673952571
 31
0.0
  0
LINE
  5
CDA
330
A
100
AcDbEntity
  8
0
 62
     5
100
AcDbLine
 10
90.52858654370012
 20
249.5181239972083
 30
0.0
 11
86.52858654370012
 21
249.5181239972083
 31
0.0
  0
LINE
  5
CDB
330
A
100
AcDbEntity
  8
0
 62
     5
100
AcDbLine
 10
163.5285865437001
 20
249.5181239972083
 30
0.0
 11
163.5285865437001
 21
205.4461673952571
 31
0.0
  0
LINE
  5
CDC
330
A
100
AcDbEntity
  8
0
 62
     5
100
AcDbLine
 10
159.5285865437
 20
205.4461673952571
 30
0.0
 11
159.5285865437
 21
249.5181239972083
 31
0.0
  0
LINE
  5
CDD
330
A
100
AcDbEntity
  8
0
 62
     5
100
AcDbLine
 10
147.5285865437
 20
249.5181239972083
 30
0.0
 11
147.5285865437
 21
205.4461673952571
 31
0.0
  0
LINE
  5
CDE
330
A
100
AcDbEntity
  8
0
 62
     5
100
AcDbLine
 10
143.5285865437002
 20
205.4461673952571
 30
0.0
 11
143.5285865437
 21
249.5181239972083
 31
0.0
  0
LINE
  5
CDF
330
A
100
AcDbEntity
  8
0
 62
     5
100
AcDbLine
 10
151.5285865437002
 20
205.4461673952571
 30
0.0
 11
151.5285865437
 21
249.5181239972083
 31
0.0
  0
LINE
  5
CE0
330
A
100
AcDbEntity
  8
0
 62
     5
100
AcDbLine
 10
155.5285865437
 20
249.5181239972083
 30
0.0
 11
155.5285865437
 21
205.4461673952571
 31
0.0
  0
LINE
  5
CE1
330
A
100
AcDbEntity
  8
0
 62
     5
100
AcDbLine
 10
139.5285865437001
 20
249.5181239972083
 30
0.0
 11
139.5285865437001
 21
205.4461673952571
 31
0.0
  0
LINE
  5
CE2
330
A
100
AcDbEntity
  8
0
 62
     5
100
AcDbLine
 10
135.5285865437001
 20
205.4461673952571
 30
0.0
 11
135.5285865437001
 21
249.5181239972083
 31
0.0
  0
LINE
  5
CE3
330
A
100
AcDbEntity
  8
0
 62
     5
100
AcDbLine
 10
127.5285865437002
 20
205.4461673952571
 30
0.0
 11
127.5285865437001
 21
249.5181239972083
 31
0.0
  0
LINE
  5
CE4
330
A
100
AcDbEntity
  8
0
 62
     5
100
AcDbLine
 10
131.5285865437
 20
249.5181239972083
 30
0.0
 11
131.5285865437
 21
205.4461673952571
 31
0.0
  0
LINE
  5
CE5
330
A
100
AcDbEntity
  8
0
 62
     5
100
AcDbLine
 10
159.5285865437
 20
249.5181239972083
 30
0.0
 11
163.5285865437001
 21
249.5181239972083
 31
0.0
  0
LINE
  5
CE6
330
A
100
AcDbEntity
  8
0
 62
     5
100
AcDbLine
 10
151.5285865437
 20
249.5181239972083
 30
0.0
 11
155.5285865437
 21
249.5181239972083
 31
0.0
  0
LINE
  5
CE7
330
A
100
AcDbEntity
  8
0
 62
     5
100
AcDbLine
 10
135.5285865437001
 20
249.5181239972083
 30
0.0
 11
139.5285865437001
 21
249.5181239972083
 31
0.0
  0
LINE
  5
CE8
330
A
100
AcDbEntity
  8
0
 62
     5
100
AcDbLine
 10
143.5285865437
 20
249.5181239972083
 30
0.0
 11
147.5285865437
 21
249.5181239972083
 31
0.0
  0
LINE
  5
CE9
330
A
100
AcDbEntity
  8
0
 62
     5
100
AcDbLine
 10
127.5285865437001
 20
249.5181239972083
 30
0.0
 11
131.5285865437
 21
249.5181239972083
 31
0.0
  0
DIMENSION
  5
D17
330
A
100
AcDbEntity
  8
0
 62
     7
100
AcDbDimension
  2
*D2
 10
55.19003762155785
 20
67.909592
 30
0.0
 11
55.19003762155785
 21
177.9095995
 31
0.0
 70
    32
 71
     5
 42
220.000015
  3
Standard
100
AcDbAlignedDimension
 13
83.49999947640119
 23
287.909607
 33
0.0
 14
83.49999947640119
 24
67.909592
 34
0.0
 50
90.0
100
AcDbRotatedDimension
1001
ACAD
1000
DSTYLE
1002
{
1070
   178
1070
     7
1070
   176
1070
     7
1070
    41
1040
10.0
1070
    42
1040
0.625
1070
    43
1040
3.75
1070
    44
1040
1.25
1070
    73
1070
     0
1070
    74
1070
     0
1070
    77
1070
     0
1070
    78
1070
     8
1070
   140
1040
10.0
1070
   141
1040
2.5
1070
   143
1040
0.03937
1070
   147
1040
0.625
1070
   171
1070
     3
1070
   172
1070
     1
1070
   271
1070
     2
1070
   272
1070
     2
1070
   274
1070
     3
1070
   278
1070
    44
1070
   283
1070
     0
1070
   284
1070
     8
1070
   289
1070
     0
1002
}
  0
DIMENSION
  5
D48
330
A
100
AcDbEntity
  8
0
 62
     7
100
AcDbDimension
  2
*D3
 10
176.5
 20
307.275474597289
 30
0.0
 11
125.0
 21
307.275474597289
 31
0.0
 70
    32
 71
     5
 42
103.0
  3
Standard
100
AcDbAlignedDimension
 13
73.50000000000003
 23
277.9096061273354
 33
0.0
 14
176.5
 24
277.9096061273354
 34
0.0
100
AcDbRotatedDimension
1001
ACAD
1000
DSTYLE
1002
{
1070
   178
1070
     7
1070
   176
1070
     7
1070
    41
1040
10.0
1070
    42
1040
0.625
1070
    43
1040
3.75
1070
    44
1040
1.25
1070
    73
1070
     0
1070
    74
1070
     0
1070
    77
1070
     0
1070
    78
1070
     8
1070
   140
1040
10.0
1070
   141
1040
2.5
1070
   143
1040
0.03937
1070
   147
1040
0.625
1070
   171
1070
     3
1070
   172
1070
     1
1070
   271
1070
     2
1070
   272
1070
     2
1070
   274
1070
     3
1070
   278
1070
    44
1070
   283
1070
     0
1070
   284
1070
     8
1070
   289
1070
     0
1002
}
  0
VIEWPORT
  5
964
102
{ACAD_XDICTIONARY
360
DBB
102
}
330
B
100
AcDbEntity
 67
     1
  8
0
 62
     0
370
     0
100
AcDbViewport
 10
0.0
 20
0.0
 30
0.0
 40
1000.0
 41
1000.0
 68
     1
 69
     1
 12
0.0
 22
0.0
 13
0.0
 23
0.0
 14
1.0
 24
1.0
 15
1.0
 25
1.0
 16
0.0
 26
0.0
 36
1.0
 17
0.0
 27
0.0
 37
0.0
 42
50.0
 43
0.0
 44
0.0
 45
1000.0
 50
0.0
 51
0.0
 72
   100
 90
        0
  1

281
     0
 71
     0
 74
     1
110
0.0
120
0.0
130
0.0
111
1.0
121
0.0
131
0.0
112
0.0
122
1.0
132
0.0
 79
     0
146
0.0
  0
ENDSEC
  0
SECTION
  2
OBJECTS
  0
DICTIONARY
  5
19
330
0
100
AcDbDictionary
281
     1
  3
ACAD_COLOR
350
993
  3
ACAD_GROUP
350
1A
  3
ACAD_LAYOUT
350
1E
  3
ACAD_MATERIAL
350
969
  3
ACAD_MLEADERSTYLE
350
9B8
  3
ACAD_MLINESTYLE
350
1B
  3
ACAD_PLOTSETTINGS
350
22
  3
ACAD_PLOTSTYLENAME
350
1F
  3
ACAD_SCALELIST
350
996
  3
ACAD_TABLESTYLE
350
994
  3
ACAD_VISUALSTYLE
350
982
  3
ACAD_WIPEOUT_VARS
350
23
  3
ACDB_RECOMPOSE_DATA
350
A7C
  3
AcDbVariableDictionary
350
A57
  3
DWGPROPS
350
DB6
  0
DICTIONARY
  5
A55
330
14
100
AcDbDictionary
280
     1
281
     1
  3
ADSK_XREC_LAYER_RECONCILED
360
A56
  0
DICTIONARY
  5
AA3
330
A
100
AcDbDictionary
280
     1
281
     1
  3
ACAD_SORTENTS
360
AA4
  0
DICTIONARY
  5
DBB
330
964
100
AcDbDictionary
280
     1
281
     1
  3
ACAD_XREC_ROUNDTRIP
360
DBC
  0
DICTIONARY
  5
993
102
{ACAD_REACTORS
330
19
102
}
330
19
100
AcDbDictionary
281
     1
  0
DICTIONARY
  5
1A
102
{ACAD_REACTORS
330
19
102
}
330
19
100
AcDbDictionary
281
     1
  0
DICTIONARY
  5
1E
102
{ACAD_REACTORS
330
19
102
}
330
19
100
AcDbDictionary
281
     1
  3
Layout1
350
21
  3
Model
350
20
  0
DICTIONARY
  5
969
102
{ACAD_REACTORS
330
19
102
}
330
19
100
AcDbDictionary
281
     1
  3
ByBlock
350
972
  3
ByLayer
350
96A
  3
Global
350
97A
  0
DICTIONARY
  5
9B8
102
{ACAD_REACTORS
330
19
102
}
330
19
100
AcDbDictionary
281
     1
  3
Standard
350
9B9
  0
DICTIONARY
  5
1B
102
{ACAD_REACTORS
330
19
102
}
330
19
100
AcDbDictionary
281
     1
  3
Standard
350
1C
  0
DICTIONARY
  5
22
102
{ACAD_REACTORS
330
19
102
}
330
19
100
AcDbDictionary
281
     1
  0
ACDBDICTIONARYWDFLT
  5
1F
102
{ACAD_REACTORS
330
19
102
}
330
19
100
AcDbDictionary
281
     1
  3
Normal
350
1D
100
AcDbDictionaryWithDefault
340
1D
  0
DICTIONARY
  5
996
102
{ACAD_REACTORS
330
19
102
}
330
19
100
AcDbDictionary
281
     1
  3
A0
350
997
  3
A1
350
998
  3
A2
350
999
  3
A3
350
99A
  3
A4
350
99B
  3
A5
350
99C
  3
A6
350
99D
  3
A7
350
99E
  3
A8
350
99F
  3
A9
350
9A0
  3
B0
350
9A1
  3
B1
350
9A2
  3
B2
350
9A3
  3
B3
350
9A4
  3
B4
350
9A5
  3
B5
350
9A6
  3
B6
350
9A7
  3
B7
350
9A8
  3
B8
350
9A9
  3
B9
350
9AA
  3
C0
350
9AB
  3
C1
350
9AC
  3
C2
350
9AD
  3
C3
350
9AE
  3
C4
350
9AF
  3
C5
350
9B0
  3
C6
350
9B1
  3
C7
350
9B2
  3
C8
350
9B3
  3
C9
350
9B4
  3
D0
350
9B5
  3
D1
350
9B6
  3
D2
350
9B7
  0
DICTIONARY
  5
994
102
{ACAD_REACTORS
330
19
102
}
330
19
100
AcDbDictionary
281
     1
  3
Standard
350
995
  0
DICTIONARY
  5
982
102
{ACAD_REACTORS
330
19
102
}
330
19
100
AcDbDictionary
281
     1
  3
2dWireframe
350
988
  3
3D Hidden
350
98A
  3
3dWireframe
350
989
  3
Basic
350
987
  3
Brighten
350
98E
  3
ColorChange
350
992
  3
Conceptual
350
98B
  3
Dim
350
98D
  3
Facepattern
350
991
  3
Flat
350
983
  3
FlatWithEdges
350
984
  3
Gouraud
350
985
  3
GouraudWithEdges
350
986
  3
Linepattern
350
990
  3
Realistic
350
98C
  3
Thicken
350
98F
  0
WIPEOUTVARIABLES
  5
23
330
19
100
AcDbWipeoutVariables
 70
     1
  0
XRECORD
  5
A7C
102
{ACAD_REACTORS
330
19
102
}
330
19
100
AcDbXrecord
280
     1
 90
        1
330
995
  0
DICTIONARY
  5
A57
102
{ACAD_REACTORS
330
19
102
}
330
19
100
AcDbDictionary
281
     1
  3
CANNOSCALE
350
A5A
  3
CMLEADERSTYLE
350
A59
  3
CTABLESTYLE
350
A58
  3
DIMASSOC
350
A5D
  3
INDEXCTL
350
A5C
  3
SORTENTS
350
A5B
  0
XRECORD
  5
DB6
102
{ACAD_REACTORS
330
19
102
}
330
19
100
AcDbXrecord
280
     1
  1
DWGPROPS COOKIE
  2

  3

  4

  6

  7

  8
fontanaNZ
  9

300
=
301
=
302
=
303
=
304
=
305
=
306
=
307
=
308
=
309
=
 40
0.085913125
 41
2455384.611461088
 42
2455510.647906007
  1

 90
        0
  0
XRECORD
  5
A56
102
{ACAD_REACTORS
330
A55
102
}
330
A55
100
AcDbXrecord
280
     1
290
     1
  0
SORTENTSTABLE
  5
AA4
102
{ACAD_REACTORS
330
AA3
102
}
330
AA3
100
AcDbSortentsTable
330
A
331
8DB
  5
924
331
912
  5
A00
331
46E
  5
78B
331
844
  5
8FC
331
951
  5
AB9
331
959
  5
AC1
331
84C
  5
8FE
331
8E3
  5
92C
331
815
  5
8D8
331
91A
  5
A08
331
922
  5
A10
331
961
  5
AC5
331
854
  5
906
331
8EB
  5
934
331
486
  5
791
331
81D
  5
8DF
331
92A
  5
A22
331
85C
  5
90D
331
3FF
  5
604
331
DB
  5
DB
331
3A0
  5
422
331
122
  5
150
331
74
  5
74
331
171
  5
251
331
3C0
  5
449
331
AC8
  5
6DD
331
8F3
  5
93C
331
932
  5
A9E
331
49E
  5
796
331
825
  5
8E7
331
864
  5
912
331
A01
  5
ACA
331
AD0
  5
3F0
331
874
  5
917
331
8FB
  5
94A
331
82D
  5
8EF
331
93A
  5
AA8
331
A09
  5
AD2
331
903
  5
952
331
447
  5
73D
331
61E
  5
7BF
331
835
  5
8F6
331
942
  5
AB0
331
94A
  5
AB2
331
A11
  5
ADA
331
8D4
  5
91D
331
90B
  5
95A
331
AE8
  5
107
331
3C8
  5
472
331
45
  5
45
331
142
  5
15D
331
14A
  5
166
331
1A1
  5
261
331
4D
  5
4D
331
F3
  5
F3
331
55
  5
55
331
371
  5
3FB
331
3F0
  5
48A
331
10B
  5
121
331
15A
  5
16E
331
B4
  5
B4
331
913
  5
A01
331
952
  5
ABA
331
80E
  5
8D4
331
8DC
  5
925
331
91B
  5
A09
331
95A
  5
AC2
331
816
  5
8D9
331
84D
  5
8FF
331
8E4
  5
92D
331
8EC
  5
935
331
923
  5
A11
331
487
  5
792
331
81E
  5
8E0
331
855
  5
907
331
85D
  5
90E
331
92B
  5
A23
331
65
  5
65
331
162
  5
175
331
16A
  5
1A0
331
3A1
  5
439
331
123
  5
158
331
8D
  5
8D
331
3C1
  5
44A
331
420
  5
621
331
933
  5
A9F
331
865
  5
913
331
8F4
  5
93D
331
AC9
  5
404
331
826
  5
8E8
331
93B
  5
AA9
331
A02
  5
ACB
331
82E
  5
8F0
331
875
  5
918
331
8FC
  5
94B
331
AD1
  5
3F9
331
904
  5
953
331
448
  5
75A
331
A0A
  5
AD3
331
A12
  5
ADB
331
AE9
  5
109
331
8D5
  5
91E
331
90C
  5
95F
331
83E
  5
8F9
331
94B
  5
AB3
331
3C9
  5
474
331
EC
  5
EC
331
46
  5
46
331
143
  5
15F
331
1A2
  5
2D0
331
3D9
  5
486
331
A5
  5
A5
331
15B
  5
16F
331
5E
  5
5E
331
10C
  5
122
331
A22
  5
AE7
331
8DD
  5
926
331
470
  5
78C
331
80F
  5
8D5
331
914
  5
A02
331
953
  5
ABB
331
84E
  5
900
331
8E5
  5
92E
331
91C
  5
A0A
331
924
  5
A12
331
81F
  5
8E1
331
856
  5
908
331
488
  5
793
331
8ED
  5
936
331
92C
  5
A24
331
3F9
  5
49E
331
163
  5
176
331
3A2
  5
43B
331
419
  5
61E
331
173
  5
258
331
3C2
  5
44B
331
ACA
  5
405
331
8F5
  5
93E
331
528
  5
7B9
331
827
  5
8E9
331
934
  5
AA0
331
439
  5
67D
331
A03
  5
ACC
331
AD2
  5
3FA
331
876
  5
919
331
8FD
  5
94C
331
82F
  5
8F1
331
93C
  5
AAA
331
A0B
  5
AD4
331
449
  5
773
331
620
  5
7C0
331
905
  5
954
331
AE2
  5
129
331
94C
  5
AB4
331
A13
  5
ADC
331
83F
  5
8FA
331
8D6
  5
91F
331
90D
  5
960
331
AEA
  5
10B
331
19B
  5
25B
331
47
  5
47
331
144
  5
162
331
14C
  5
168
331
A6
  5
A6
331
AA0
  5
AE4
331
3DA
  5
487
331
393
  5
3FC
331
915
  5
A03
331
954
  5
ABC
331
810
  5
8D6
331
8DE
  5
927
331
A23
  5
AE8
331
8E6
  5
92F
331
91D
  5
A0B
331
818
  5
8DA
331
84F
  5
901
331
8EE
  5
937
331
925
  5
A13
331
489
  5
794
331
857
  5
909
331
85F
  5
910
331
92D
  5
A2E
331
3FA
  5
49F
331
164
  5
19B
331
6F
  5
6F
331
16C
  5
1A1
331
3A3
  5
443
331
402
  5
606
331
E6
  5
E6
331
8F
  5
8F
331
3C3
  5
44C
331
422
  5
65D
331
820
  5
8E2
331
935
  5
AA1
331
828
  5
8EA
331
529
  5
7BA
331
8F6
  5
93F
331
ACB
  5
419
331
93D
  5
AAB
331
A04
  5
ACD
331
830
  5
8F2
331
8FE
  5
94D
331
AE3
  5
142
331
906
  5
955
331
621
  5
7C1
331
44A
  5
774
331
8BF
  5
91A
331
A0C
  5
AD5
331
A14
  5
ADD
331
AEB
  5
10C
331
8D7
  5
920
331
90E
  5
961
331
94D
  5
AB5
331
3CB
  5
475
331
EE
  5
EE
331
48
  5
48
331
97
  5
97
331
19C
  5
25C
331
AA1
  5
AE5
331
58
  5
58
331
15D
  5
171
331
B7
  5
B7
331
394
  5
3FD
331
955
  5
ABD
331
A24
  5
AE9
331
472
  5
78D
331
8DF
  5
928
331
916
  5
A04
331
850
  5
902
331
8E7
  5
930
331
819
  5
8DB
331
91E
  5
A0C
331
926
  5
A14
331
858
  5
90A
331
48A
  5
795
331
8EF
  5
938
331
92E
  5
A2F
331
3FB
  5
4E8
331
3A4
  5
444
331
39
  5
39
331
11E
  5
14A
331
16D
  5
1A2
331
175
  5
259
331
3C4
  5
44E
331
821
  5
8E3
331
ACC
  5
41D
331
8F7
  5
940
331
829
  5
8EB
331
936
  5
AA2
331
43B
  5
69C
331
9FD
  5
AC6
331
A05
  5
ACE
331
8FF
  5
94E
331
443
  5
6DF
331
831
  5
8F3
331
93E
  5
AAC
331
A0D
  5
AD6
331
44B
  5
785
331
907
  5
956
331
AE4
  5
143
331
AEC
  5
110
331
94E
  5
AB6
331
A15
  5
ADE
331
90F
  5
9FD
331
90
  5
90
331
146
  5
163
331
A0
  5
A0
331
49
  5
49
331
14E
  5
16A
331
AA2
  5
AE6
331
107
  5
11E
331
B0
  5
B0
331
46B
  5
78A
331
8D8
  5
921
331
917
  5
A05
331
956
  5
ABE
331
8E0
  5
929
331
8E8
  5
931
331
91F
  5
A0D
331
81A
  5
8DC
331
851
  5
903
331
A9D
  5
AE1
331
927
  5
A15
331
AC5
  5
6A2
331
92F
  5
A50
331
B8
  5
B8
331
61
  5
61
331
3FC
  5
528
331
166
  5
19C
331
16E
  5
248
331
3A5
  5
446
331
11F
  5
14C
331
404
  5
61B
331
176
  5
25A
331
3C5
  5
46B
331
8F0
  5
939
331
822
  5
8E4
331
937
  5
AA5
331
9FE
  5
AC7
331
82A
  5
8EC
331
871
  5
914
331
8F8
  5
941
331
ACD
  5
3DA
331
900
  5
94F
331
832
  5
8F4
331
93F
  5
AAD
331
A06
  5
ACF
331
444
  5
6F8
331
61B
  5
7BD
331
AE5
  5
144
331
908
  5
957
331
44C
  5
788
331
A0E
  5
AD7
331
A16
  5
ADF
331
AED
  5
111
331
94F
  5
AB7
331
42
  5
42
331
91
  5
91
331
E8
  5
E8
331
3CD
  5
485
331
F0
  5
F0
331
4A
  5
4A
331
19E
  5
25E
331
A9
  5
A9
331
3DD
  5
488
331
15F
  5
173
331
396
  5
3FF
331
8D9
  5
922
331
910
  5
9FE
331
957
  5
ABF
331
8E1
  5
92A
331
474
  5
78E
331
813
  5
8D7
331
918
  5
A06
331
95F
  5
AC3
331
A2E
  5
AEA
331
852
  5
904
331
8E9
  5
932
331
81B
  5
8DD
331
920
  5
A0E
331
928
  5
A16
331
85A
  5
90B
331
A9E
  5
AE2
331
AC6
  5
6DA
331
110
  5
123
331
3FD
  5
529
331
D9
  5
D9
331
3A6
  5
447
331
405
  5
61C
331
16F
  5
24B
331
128
  5
15A
331
41D
  5
620
331
3C6
  5
46E
331
8F1
  5
93A
331
823
  5
8E5
331
930
  5
A54
331
9FF
  5
AC8
331
ACE
  5
3DD
331
8F9
  5
942
331
938
  5
AA6
331
82B
  5
8ED
331
872
  5
915
331
A07
  5
AD0
331
901
  5
950
331
61C
  5
7BE
331
833
  5
8F5
331
940
  5
AAE
331
948
  5
AB1
331
A0F
  5
AD8
331
83B
  5
8F7
331
8D2
  5
91B
331
909
  5
958
331
AE6
  5
146
331
A17
  5
AE0
331
148
  5
164
331
150
  5
16C
331
AA
  5
AA
331
109
  5
11F
331
5B
  5
5B
331
158
  5
16D
331
397
  5
402
331
911
  5
9FF
331
950
  5
AB8
331
843
  5
8FB
331
8DA
  5
923
331
919
  5
A07
331
958
  5
AC0
331
84B
  5
8FD
331
475
  5
78F
331
8E2
  5
92B
331
A2F
  5
AEB
331
8EA
  5
933
331
921
  5
A0F
331
485
  5
790
331
81C
  5
8DE
331
853
  5
905
331
960
  5
AC4
331
A9F
  5
AE3
331
85B
  5
90C
331
929
  5
A17
331
AC7
  5
6DC
331
111
  5
128
331
168
  5
19E
331
39F
  5
420
331
121
  5
14E
331
129
  5
15B
331
3BF
  5
448
331
3C7
  5
470
331
863
  5
911
331
8F2
  5
93B
331
824
  5
8E6
331
931
  5
A9D
331
939
  5
AA7
331
A00
  5
AC9
331
82C
  5
8EE
331
873
  5
916
331
8FA
  5
948
331
ACF
  5
3EF
331
902
  5
951
331
941
  5
AAF
331
446
  5
705
331
A08
  5
AD1
331
A10
  5
AD9
331
90A
  5
959
331
AE7
  5
148
331
83C
  5
8F8
331
44E
  5
789
331
8D3
  5
91C
331
EA
  5
EA
331
93
  5
93
331
F2
  5
F2
331
4C
  5
4C
331
1A0
  5
25F
331
3EF
  5
489
  0
XRECORD
  5
DBC
102
{ACAD_REACTORS
330
DBB
102
}
330
DBB
100
AcDbXrecord
280
     1
102
SHADEPLOT
 70
     0
  0
LAYOUT
  5
21
102
{ACAD_XDICTIONARY
360
DB9
102
}
102
{ACAD_REACTORS
330
1E
102
}
330
1E
100
AcDbPlotSettings
  1

  2

  4

  6

 40
0.0
 41
0.0
 42
0.0
 43
0.0
 44
0.0
 45
0.0
 46
0.0
 47
0.0
 48
0.0
 49
0.0
140
0.0
141
0.0
142
1.0
143
1.0
 70
     0
 72
     0
 73
     0
 74
     0
  7

 75
     0
147
1.0
148
0.0
149
0.0
100
AcDbLayout
  1
Layout1
 70
     1
 71
     1
 10
0.0
 20
0.0
 11
420.0
 21
297.0
 12
0.0
 22
0.0
 32
0.0
 14
0.0
 24
0.0
 34
0.0
 15
176.5
 25
287.909607
 35
2.0
146
0.0
 13
0.0
 23
0.0
 33
0.0
 16
1.0
 26
0.0
 36
0.0
 17
0.0
 27
1.0
 37
0.0
 76
     0
330
B
331
964
  0
LAYOUT
  5
20
102
{ACAD_XDICTIONARY
360
DB7
102
}
102
{ACAD_REACTORS
330
1E
102
}
330
1E
100
AcDbPlotSettings
  1

  2

  4

  6

 40
0.0
 41
0.0
 42
0.0
 43
0.0
 44
0.0
 45
0.0
 46
0.0
 47
0.0
 48
0.0
 49
0.0
140
0.0
141
0.0
142
1.0
143
1.0
 70
  1024
 72
     0
 73
     0
 74
     0
  7

 75
     0
147
1.0
148
0.0
149
0.0
100
AcDbLayout
  1
Model
 70
     0
 71
     0
 10
0.0
 20
0.0
 11
0.0
 21
0.0
 12
0.0
 22
0.0
 32
0.0
 14
0.0
 24
0.0
 34
0.0
 15
0.0
 25
0.0
 35
0.0
146
0.0
 13
0.0
 23
0.0
 33
0.0
 16
0.0
 26
0.0
 36
0.0
 17
0.0
 27
0.0
 37
0.0
 76
     0
330
A
331
15
  0
MATERIAL
  5
972
102
{ACAD_XDICTIONARY
360
973
102
}
102
{ACAD_REACTORS
330
969
102
}
330
969
100
AcDbMaterial
  1
ByBlock
 72
     0
 43
0.0208333333333333
 43
0.0
 43
0.0
 43
0.0
 43
0.0
 43
0.0208333333333333
 43
0.0
 43
0.0
 43
0.0
 43
0.0
 43
1.0
 43
0.0
 43
0.0
 43
0.0
 43
0.0
 43
1.0
 77
     0
 47
0.0208333333333333
 47
0.0
 47
0.0
 47
0.0
 47
0.0
 47
0.0208333333333333
 47
0.0
 47
0.0
 47
0.0
 47
0.0
 47
1.0
 47
0.0
 47
0.0
 47
0.0
 47
0.0
 47
1.0
171
     0
 49
0.0208333333333333
 49
0.0
 49
0.0
 49
0.0
 49
0.0
 49
0.0208333333333333
 49
0.0
 49
0.0
 49
0.0
 49
0.0
 49
1.0
 49
0.0
 49
0.0
 49
0.0
 49
0.0
 49
1.0
175
     0
142
0.0208333333333333
142
0.0
142
0.0
142
0.0
142
0.0
142
0.0208333333333333
142
0.0
142
0.0
142
0.0
142
0.0
142
1.0
142
0.0
142
0.0
142
0.0
142
0.0
142
1.0
179
     0
144
0.0208333333333333
144
0.0
144
0.0
144
0.0
144
0.0
144
0.0208333333333333
144
0.0
144
0.0
144
0.0
144
0.0
144
1.0
144
0.0
144
0.0
144
0.0
144
0.0
144
1.0
147
0.0208333333333333
147
0.0
147
0.0
147
0.0
147
0.0
147
0.0208333333333333
147
0.0
147
0.0
147
0.0
147
0.0
147
1.0
147
0.0
147
0.0
147
0.0
147
0.0
147
1.0
  0
MATERIAL
  5
96A
102
{ACAD_XDICTIONARY
360
96B
102
}
102
{ACAD_REACTORS
330
969
102
}
330
969
100
AcDbMaterial
  1
ByLayer
 72
     0
 43
0.0208333333333333
 43
0.0
 43
0.0
 43
0.0
 43
0.0
 43
0.0208333333333333
 43
0.0
 43
0.0
 43
0.0
 43
0.0
 43
1.0
 43
0.0
 43
0.0
 43
0.0
 43
0.0
 43
1.0
 77
     0
 47
0.0208333333333333
 47
0.0
 47
0.0
 47
0.0
 47
0.0
 47
0.0208333333333333
 47
0.0
 47
0.0
 47
0.0
 47
0.0
 47
1.0
 47
0.0
 47
0.0
 47
0.0
 47
0.0
 47
1.0
171
     0
 49
0.0208333333333333
 49
0.0
 49
0.0
 49
0.0
 49
0.0
 49
0.0208333333333333
 49
0.0
 49
0.0
 49
0.0
 49
0.0
 49
1.0
 49
0.0
 49
0.0
 49
0.0
 49
0.0
 49
1.0
175
     0
142
0.0208333333333333
142
0.0
142
0.0
142
0.0
142
0.0
142
0.0208333333333333
142
0.0
142
0.0
142
0.0
142
0.0
142
1.0
142
0.0
142
0.0
142
0.0
142
0.0
142
1.0
179
     0
144
0.0208333333333333
144
0.0
144
0.0
144
0.0
144
0.0
144
0.0208333333333333
144
0.0
144
0.0
144
0.0
144
0.0
144
1.0
144
0.0
144
0.0
144
0.0
144
0.0
144
1.0
147
0.0208333333333333
147
0.0
147
0.0
147
0.0
147
0.0
147
0.0208333333333333
147
0.0
147
0.0
147
0.0
147
0.0
147
1.0
147
0.0
147
0.0
147
0.0
147
0.0
147
1.0
  0
MATERIAL
  5
97A
102
{ACAD_XDICTIONARY
360
97B
102
}
102
{ACAD_REACTORS
330
969
102
}
330
969
100
AcDbMaterial
  1
Global
 72
     0
 43
0.0208333333333333
 43
0.0
 43
0.0
 43
0.0
 43
0.0
 43
0.0208333333333333
 43
0.0
 43
0.0
 43
0.0
 43
0.0
 43
1.0
 43
0.0
 43
0.0
 43
0.0
 43
0.0
 43
1.0
 77
     0
 47
0.0208333333333333
 47
0.0
 47
0.0
 47
0.0
 47
0.0
 47
0.0208333333333333
 47
0.0
 47
0.0
 47
0.0
 47
0.0
 47
1.0
 47
0.0
 47
0.0
 47
0.0
 47
0.0
 47
1.0
171
     0
 49
0.0208333333333333
 49
0.0
 49
0.0
 49
0.0
 49
0.0
 49
0.0208333333333333
 49
0.0
 49
0.0
 49
0.0
 49
0.0
 49
1.0
 49
0.0
 49
0.0
 49
0.0
 49
0.0
 49
1.0
175
     0
142
0.0208333333333333
142
0.0
142
0.0
142
0.0
142
0.0
142
0.0208333333333333
142
0.0
142
0.0
142
0.0
142
0.0
142
1.0
142
0.0
142
0.0
142
0.0
142
0.0
142
1.0
179
     0
144
0.0208333333333333
144
0.0
144
0.0
144
0.0
144
0.0
144
0.0208333333333333
144
0.0
144
0.0
144
0.0
144
0.0
144
1.0
144
0.0
144
0.0
144
0.0
144
0.0
144
1.0
147
0.0208333333333333
147
0.0
147
0.0
147
0.0
147
0.0
147
0.0208333333333333
147
0.0
147
0.0
147
0.0
147
0.0
147
1.0
147
0.0
147
0.0
147
0.0
147
0.0
147
1.0
  0
MLEADERSTYLE
  5
9B9
102
{ACAD_REACTORS
330
9B8
102
}
330
9B8
100
AcDbMLeaderStyle
170
     2
171
     1
172
     0
 90
        2
 40
0.0
 41
0.0
173
     1
 91
-1056964608
340
11
 92
       -2
290
     1
 42
2.0
291
     1
 43
0.36
  3
Standard
 44
4.0
300

342
17
174
     1
178
     6
175
     1
176
     0
 93
-1056964608
 45
4.0
292
     0
297
     0
 46
4.0
 94
-1056964608
 47
1.0
 49
1.0
140
1.0
293
     1
141
0.0
294
     1
177
     0
142
1.0
295
     0
296
     0
143
0.125
1001
ACAD_MLEADERVER
1070
     2
  0
MLINESTYLE
  5
1C
102
{ACAD_REACTORS
330
1B
102
}
330
1B
100
AcDbMlineStyle
  2
STANDARD
 70
     0
  3

 62
     0
 51
90.0
 52
90.0
 71
     2
 49
0.5
 62
   256
  6
BYLAYER
 49
-0.5
 62
   256
  6
BYLAYER
  0
ACDBPLACEHOLDER
  5
1D
102
{ACAD_REACTORS
330
1F
102
}
330
1F
  0
SCALE
  5
997
102
{ACAD_REACTORS
330
996
102
}
330
996
100
AcDbScale
 70
     0
300
1:1
140
1.0
141
1.0
290
     1
  0
SCALE
  5
998
102
{ACAD_REACTORS
330
996
102
}
330
996
100
AcDbScale
 70
     0
300
1:2
140
1.0
141
2.0
290
     0
  0
SCALE
  5
999
102
{ACAD_REACTORS
330
996
102
}
330
996
100
AcDbScale
 70
     0
300
1:4
140
1.0
141
4.0
290
     0
  0
SCALE
  5
99A
102
{ACAD_REACTORS
330
996
102
}
330
996
100
AcDbScale
 70
     0
300
1:5
140
1.0
141
5.0
290
     0
  0
SCALE
  5
99B
102
{ACAD_REACTORS
330
996
102
}
330
996
100
AcDbScale
 70
     0
300
1:8
140
1.0
141
8.0
290
     0
  0
SCALE
  5
99C
102
{ACAD_REACTORS
330
996
102
}
330
996
100
AcDbScale
 70
     0
300
1:10
140
1.0
141
10.0
290
     0
  0
SCALE
  5
99D
102
{ACAD_REACTORS
330
996
102
}
330
996
100
AcDbScale
 70
     0
300
1:16
140
1.0
141
16.0
290
     0
  0
SCALE
  5
99E
102
{ACAD_REACTORS
330
996
102
}
330
996
100
AcDbScale
 70
     0
300
1:20
140
1.0
141
20.0
290
     0
  0
SCALE
  5
99F
102
{ACAD_REACTORS
330
996
102
}
330
996
100
AcDbScale
 70
     0
300
1:30
140
1.0
141
30.0
290
     0
  0
SCALE
  5
9A0
102
{ACAD_REACTORS
330
996
102
}
330
996
100
AcDbScale
 70
     0
300
1:40
140
1.0
141
40.0
290
     0
  0
SCALE
  5
9A1
102
{ACAD_REACTORS
330
996
102
}
330
996
100
AcDbScale
 70
     0
300
1:50
140
1.0
141
50.0
290
     0
  0
SCALE
  5
9A2
102
{ACAD_REACTORS
330
996
102
}
330
996
100
AcDbScale
 70
     0
300
1:100
140
1.0
141
100.0
290
     0
  0
SCALE
  5
9A3
102
{ACAD_REACTORS
330
996
102
}
330
996
100
AcDbScale
 70
     0
300
2:1
140
2.0
141
1.0
290
     0
  0
SCALE
  5
9A4
102
{ACAD_REACTORS
330
996
102
}
330
996
100
AcDbScale
 70
     0
300
4:1
140
4.0
141
1.0
290
     0
  0
SCALE
  5
9A5
102
{ACAD_REACTORS
330
996
102
}
330
996
100
AcDbScale
 70
     0
300
8:1
140
8.0
141
1.0
290
     0
  0
SCALE
  5
9A6
102
{ACAD_REACTORS
330
996
102
}
330
996
100
AcDbScale
 70
     0
300
10:1
140
10.0
141
1.0
290
     0
  0
SCALE
  5
9A7
102
{ACAD_REACTORS
330
996
102
}
330
996
100
AcDbScale
 70
     0
300
100:1
140
100.0
141
1.0
290
     0
  0
SCALE
  5
9A8
102
{ACAD_REACTORS
330
996
102
}
330
996
100
AcDbScale
 70
     0
300
1/128" = 1'-0"
140
0.0078125
141
12.0
290
     0
  0
SCALE
  5
9A9
102
{ACAD_REACTORS
330
996
102
}
330
996
100
AcDbScale
 70
     0
300
1/64" = 1'-0"
140
0.015625
141
12.0
290
     0
  0
SCALE
  5
9AA
102
{ACAD_REACTORS
330
996
102
}
330
996
100
AcDbScale
 70
     0
300
1/32" = 1'-0"
140
0.03125
141
12.0
290
     0
  0
SCALE
  5
9AB
102
{ACAD_REACTORS
330
996
102
}
330
996
100
AcDbScale
 70
     0
300
1/16" = 1'-0"
140
0.0625
141
12.0
290
     0
  0
SCALE
  5
9AC
102
{ACAD_REACTORS
330
996
102
}
330
996
100
AcDbScale
 70
     0
300
3/32" = 1'-0"
140
0.09375
141
12.0
290
     0
  0
SCALE
  5
9AD
102
{ACAD_REACTORS
330
996
102
}
330
996
100
AcDbScale
 70
     0
300
1/8" = 1'-0"
140
0.125
141
12.0
290
     0
  0
SCALE
  5
9AE
102
{ACAD_REACTORS
330
996
102
}
330
996
100
AcDbScale
 70
     0
300
3/16" = 1'-0"
140
0.1875
141
12.0
290
     0
  0
SCALE
  5
9AF
102
{ACAD_REACTORS
330
996
102
}
330
996
100
AcDbScale
 70
     0
300
1/4" = 1'-0"
140
0.25
141
12.0
290
     0
  0
SCALE
  5
9B0
102
{ACAD_REACTORS
330
996
102
}
330
996
100
AcDbScale
 70
     0
300
3/8" = 1'-0"
140
0.375
141
12.0
290
     0
  0
SCALE
  5
9B1
102
{ACAD_REACTORS
330
996
102
}
330
996
100
AcDbScale
 70
     0
300
1/2" = 1'-0"
140
0.5
141
12.0
290
     0
  0
SCALE
  5
9B2
102
{ACAD_REACTORS
330
996
102
}
330
996
100
AcDbScale
 70
     0
300
3/4" = 1'-0"
140
0.75
141
12.0
290
     0
  0
SCALE
  5
9B3
102
{ACAD_REACTORS
330
996
102
}
330
996
100
AcDbScale
 70
     0
300
1" = 1'-0"
140
1.0
141
12.0
290
     0
  0
SCALE
  5
9B4
102
{ACAD_REACTORS
330
996
102
}
330
996
100
AcDbScale
 70
     0
300
1-1/2" = 1'-0"
140
1.5
141
12.0
290
     0
  0
SCALE
  5
9B5
102
{ACAD_REACTORS
330
996
102
}
330
996
100
AcDbScale
 70
     0
300
3" = 1'-0"
140
3.0
141
12.0
290
     0
  0
SCALE
  5
9B6
102
{ACAD_REACTORS
330
996
102
}
330
996
100
AcDbScale
 70
     0
300
6" = 1'-0"
140
6.0
141
12.0
290
     0
  0
SCALE
  5
9B7
102
{ACAD_REACTORS
330
996
102
}
330
996
100
AcDbScale
 70
     0
300
1'-0" = 1'-0"
140
12.0
141
12.0
290
     0
  0
TABLESTYLE
  5
995
102
{ACAD_XDICTIONARY
360
A7A
102
}
102
{ACAD_REACTORS
330
994
102
}
330
994
100
AcDbTableStyle
  3
Standard
 70
     0
 71
     0
 40
1.5
 41
1.5
280
     0
281
     0
  7
Standard
140
4.5
170
     2
 62
     0
 63
     7
283
     0
274
    -2
284
     1
 64
     0
275
    -2
285
     1
 65
     0
276
    -2
286
     1
 66
     0
277
    -2
287
     1
 67
     0
278
    -2
288
     1
 68
     0
279
    -2
289
     1
 69
     0
  7
Standard
140
6.0
170
     5
 62
     0
 63
     7
283
     0
274
    -2
284
     1
 64
     0
275
    -2
285
     1
 65
     0
276
    -2
286
     1
 66
     0
277
    -2
287
     1
 67
     0
278
    -2
288
     1
 68
     0
279
    -2
289
     1
 69
     0
  7
Standard
140
4.5
170
     5
 62
     0
 63
     7
283
     0
274
    -2
284
     1
 64
     0
275
    -2
285
     1
 65
     0
276
    -2
286
     1
 66
     0
277
    -2
287
     1
 67
     0
278
    -2
288
     1
 68
     0
279
    -2
289
     1
 69
     0
  0
VISUALSTYLE
  5
988
102
{ACAD_REACTORS
330
982
102
}
330
982
100
AcDbVisualStyle
  2
2dWireframe
 70
     4
 71
     0
 72
     2
 73
     0
 90
        0
 40
-0.6
 41
-30.0
 62
     5
 63
     7
 74
     1
 91
        4
 64
     7
 65
   257
 75
     1
175
     1
 42
1.0
 92
        0
 66
   257
 43
1.0
 76
     1
 77
     6
 78
     2
 67
     7
 79
     5
170
     0
171
     0
290
     0
174
     0
 93
        1
 44
0.0
173
     0
291
     0
 45
0.0
1001
ACAD
1000
AcDbSavedByObjectVersion
1070
     0
1000
AcDbSavedByObjectVersion
1070
     0
1000
AcDbSavedByObjectVersion
1070
     0
1000
AcDbSavedByObjectVersion
1070
     0
1000
AcDbSavedByObjectVersion
1070
     0
1000
AcDbSavedByObjectVersion
1070
     0
1000
AcDbSavedByObjectVersion
1070
     0
1000
AcDbSavedByObjectVersion
1070
     0
  0
VISUALSTYLE
  5
98A
102
{ACAD_REACTORS
330
982
102
}
330
982
100
AcDbVisualStyle
  2
3D Hidden
 70
     6
 71
     1
 72
     2
 73
     2
 90
        0
 40
-0.6
 41
-30.0
 62
     5
 63
     7
 74
     2
 91
        2
 64
     7
 65
   257
 75
     2
175
     1
 42
40.0
 92
        0
 66
   257
 43
1.0
 76
     1
 77
     6
 78
     2
 67
     7
 79
     3
170
     0
171
     0
290
     0
174
     0
 93
        1
 44
0.0
173
     0
291
     0
 45
0.0
1001
ACAD
1000
AcDbSavedByObjectVersion
1070
     0
1000
AcDbSavedByObjectVersion
1070
     0
1000
AcDbSavedByObjectVersion
1070
     0
1000
AcDbSavedByObjectVersion
1070
     0
1000
AcDbSavedByObjectVersion
1070
     0
1000
AcDbSavedByObjectVersion
1070
     0
1000
AcDbSavedByObjectVersion
1070
     0
1000
AcDbSavedByObjectVersion
1070
     0
  0
VISUALSTYLE
  5
989
102
{ACAD_REACTORS
330
982
102
}
330
982
100
AcDbVisualStyle
  2
3dWireframe
 70
     5
 71
     0
 72
     2
 73
     0
 90
        0
 40
-0.6
 41
-30.0
 62
     5
 63
     7
 74
     1
 91
        4
 64
     7
 65
   257
 75
     1
175
     1
 42
1.0
 92
        0
 66
   257
 43
1.0
 76
     1
 77
     6
 78
     2
 67
     7
 79
     5
170
     0
171
     0
290
     0
174
     0
 93
        1
 44
0.0
173
     0
291
     0
 45
0.0
1001
ACAD
1000
AcDbSavedByObjectVersion
1070
     0
1000
AcDbSavedByObjectVersion
1070
     0
1000
AcDbSavedByObjectVersion
1070
     0
1000
AcDbSavedByObjectVersion
1070
     0
1000
AcDbSavedByObjectVersion
1070
     0
1000
AcDbSavedByObjectVersion
1070
     0
1000
AcDbSavedByObjectVersion
1070
     0
1000
AcDbSavedByObjectVersion
1070
     0
  0
VISUALSTYLE
  5
987
102
{ACAD_REACTORS
330
982
102
}
330
982
100
AcDbVisualStyle
  2
Basic
 70
     7
 71
     1
 72
     0
 73
     1
 90
        0
 40
-0.6
 41
-30.0
 62
     5
 63
     7
 74
     0
 91
        4
 64
     7
 65
   257
 75
     1
175
     1
 42
1.0
 92
        8
 66
     7
 43
1.0
 76
     1
 77
     6
 78
     2
 67
     7
 79
     5
170
     0
171
     0
290
     0
174
     0
 93
        1
 44
0.0
173
     0
291
     1
 45
0.0
1001
ACAD
1000
AcDbSavedByObjectVersion
1070
     0
1000
AcDbSavedByObjectVersion
1070
     0
1000
AcDbSavedByObjectVersion
1070
     0
1000
AcDbSavedByObjectVersion
1070
     0
1000
AcDbSavedByObjectVersion
1070
     0
1000
AcDbSavedByObjectVersion
1070
     0
1000
AcDbSavedByObjectVersion
1070
     0
1000
AcDbSavedByObjectVersion
1070
     0
  0
VISUALSTYLE
  5
98E
102
{ACAD_REACTORS
330
982
102
}
330
982
100
AcDbVisualStyle
  2
Brighten
 70
    12
 71
     2
 72
     2
 73
     0
 90
        0
 40
-0.6
 41
-30.0
 62
     5
 63
     7
 74
     1
 91
        4
 64
     7
 65
   257
 75
     1
175
     1
 42
1.0
 92
        8
 66
     7
 43
1.0
 76
     1
 77
     6
 78
     2
 67
     7
 79
     5
170
     0
171
     0
290
     0
174
     0
 93
        1
 44
50.0
173
     0
291
     1
 45
0.0
1001
ACAD
1000
AcDbSavedByObjectVersion
1070
     0
1000
AcDbSavedByObjectVersion
1070
     0
1000
AcDbSavedByObjectVersion
1070
     0
1000
AcDbSavedByObjectVersion
1070
     0
1000
AcDbSavedByObjectVersion
1070
     0
1000
AcDbSavedByObjectVersion
1070
     0
1000
AcDbSavedByObjectVersion
1070
     0
1000
AcDbSavedByObjectVersion
1070
     0
  0
VISUALSTYLE
  5
992
102
{ACAD_REACTORS
330
982
102
}
330
982
100
AcDbVisualStyle
  2
ColorChange
 70
    16
 71
     2
 72
     2
 73
     3
 90
        0
 40
-0.6
 41
-30.0
 62
     5
 63
     8
 74
     1
 91
        4
 64
     7
 65
   257
 75
     1
175
     1
 42
1.0
 92
        8
 66
     8
 43
1.0
 76
     1
 77
     6
 78
     2
 67
     7
 79
     5
170
     0
171
     0
290
     0
174
     0
 93
        1
 44
0.0
173
     0
291
     1
 45
0.0
1001
ACAD
1000
AcDbSavedByObjectVersion
1070
     0
1000
AcDbSavedByObjectVersion
1070
     0
1000
AcDbSavedByObjectVersion
1070
     0
1000
AcDbSavedByObjectVersion
1070
     0
1000
AcDbSavedByObjectVersion
1070
     0
1000
AcDbSavedByObjectVersion
1070
     0
1000
AcDbSavedByObjectVersion
1070
     0
1000
AcDbSavedByObjectVersion
1070
     0
  0
VISUALSTYLE
  5
98B
102
{ACAD_REACTORS
330
982
102
}
330
982
100
AcDbVisualStyle
  2
Conceptual
 70
     9
 71
     3
 72
     2
 73
     0
 90
        0
 40
-0.6
 41
-30.0
 62
     5
 63
     7
 74
     2
 91
        2
 64
     7
 65
   257
 75
     1
175
     1
 42
40.0
 92
        8
 66
     7
 43
1.0
 76
     1
 77
     6
 78
     2
 67
     7
 79
     3
170
     0
171
     0
290
     0
174
     0
 93
        1
 44
0.0
173
     0
291
     0
 45
0.0
1001
ACAD
1000
AcDbSavedByObjectVersion
1070
     0
1000
AcDbSavedByObjectVersion
1070
     0
1000
AcDbSavedByObjectVersion
1070
     0
1000
AcDbSavedByObjectVersion
1070
     0
1000
AcDbSavedByObjectVersion
1070
     0
1000
AcDbSavedByObjectVersion
1070
     0
1000
AcDbSavedByObjectVersion
1070
     0
1000
AcDbSavedByObjectVersion
1070
     0
  0
VISUALSTYLE
  5
98D
102
{ACAD_REACTORS
330
982
102
}
330
982
100
AcDbVisualStyle
  2
Dim
 70
    11
 71
     2
 72
     2
 73
     0
 90
        0
 40
-0.6
 41
-30.0
 62
     5
 63
     7
 74
     1
 91
        4
 64
     7
 65
   257
 75
     1
175
     1
 42
1.0
 92
        8
 66
     7
 43
1.0
 76
     1
 77
     6
 78
     2
 67
     7
 79
     5
170
     0
171
     0
290
     0
174
     0
 93
        1
 44
-50.0
173
     0
291
     1
 45
0.0
1001
ACAD
1000
AcDbSavedByObjectVersion
1070
     0
1000
AcDbSavedByObjectVersion
1070
     0
1000
AcDbSavedByObjectVersion
1070
     0
1000
AcDbSavedByObjectVersion
1070
     0
1000
AcDbSavedByObjectVersion
1070
     0
1000
AcDbSavedByObjectVersion
1070
     0
1000
AcDbSavedByObjectVersion
1070
     0
1000
AcDbSavedByObjectVersion
1070
     0
  0
VISUALSTYLE
  5
991
102
{ACAD_REACTORS
330
982
102
}
330
982
100
AcDbVisualStyle
  2
Facepattern
 70
    15
 71
     2
 72
     2
 73
     0
 90
        0
 40
-0.6
 41
-30.0
 62
     5
 63
     7
 74
     1
 91
        4
 64
     7
 65
   257
 75
     1
175
     1
 42
1.0
 92
        8
 66
     7
 43
1.0
 76
     1
 77
     6
 78
     2
 67
     7
 79
     5
170
     0
171
     0
290
     0
174
     0
 93
        1
 44
0.0
173
     0
291
     1
 45
0.0
1001
ACAD
1000
AcDbSavedByObjectVersion
1070
     0
1000
AcDbSavedByObjectVersion
1070
     0
1000
AcDbSavedByObjectVersion
1070
     0
1000
AcDbSavedByObjectVersion
1070
     0
1000
AcDbSavedByObjectVersion
1070
     0
1000
AcDbSavedByObjectVersion
1070
     0
1000
AcDbSavedByObjectVersion
1070
     0
1000
AcDbSavedByObjectVersion
1070
     0
  0
VISUALSTYLE
  5
983
102
{ACAD_REACTORS
330
982
102
}
330
982
100
AcDbVisualStyle
  2
Flat
 70
     0
 71
     2
 72
     1
 73
     1
 90
        2
 40
-0.6
 41
30.0
 62
     5
 63
     7
 74
     0
 91
        4
 64
     7
 65
   257
 75
     1
175
     1
 42
1.0
 92
        8
 66
     7
 43
1.0
 76
     1
 77
     6
 78
     2
 67
     7
 79
     5
170
     0
171
     0
290
     0
174
     0
 93
       13
 44
0.0
173
     0
291
     1
 45
0.0
1001
ACAD
1000
AcDbSavedByObjectVersion
1070
     0
1000
AcDbSavedByObjectVersion
1070
     0
1000
AcDbSavedByObjectVersion
1070
     0
1000
AcDbSavedByObjectVersion
1070
     0
1000
AcDbSavedByObjectVersion
1070
     0
1000
AcDbSavedByObjectVersion
1070
     0
1000
AcDbSavedByObjectVersion
1070
     0
1000
AcDbSavedByObjectVersion
1070
     0
  0
VISUALSTYLE
  5
984
102
{ACAD_REACTORS
330
982
102
}
330
982
100
AcDbVisualStyle
  2
FlatWithEdges
 70
     1
 71
     2
 72
     1
 73
     1
 90
        2
 40
-0.6
 41
30.0
 62
     5
 63
     7
 74
     1
 91
        4
 64
     7
 65
   257
 75
     1
175
     1
 42
1.0
 92
        0
 66
   257
 43
1.0
 76
     1
 77
     6
 78
     2
 67
     7
 79
     5
170
     0
171
     0
290
     0
174
     0
 93
       13
 44
0.0
173
     0
291
     1
 45
0.0
1001
ACAD
1000
AcDbSavedByObjectVersion
1070
     0
1000
AcDbSavedByObjectVersion
1070
     0
1000
AcDbSavedByObjectVersion
1070
     0
1000
AcDbSavedByObjectVersion
1070
     0
1000
AcDbSavedByObjectVersion
1070
     0
1000
AcDbSavedByObjectVersion
1070
     0
1000
AcDbSavedByObjectVersion
1070
     0
1000
AcDbSavedByObjectVersion
1070
     0
  0
VISUALSTYLE
  5
985
102
{ACAD_REACTORS
330
982
102
}
330
982
100
AcDbVisualStyle
  2
Gouraud
 70
     2
 71
     2
 72
     2
 73
     1
 90
        2
 40
-0.6
 41
30.0
 62
     5
 63
     7
 74
     0
 91
        4
 64
     7
 65
   257
 75
     1
175
     1
 42
1.0
 92
        0
 66
     7
 43
1.0
 76
     1
 77
     6
 78
     2
 67
     7
 79
     5
170
     0
171
     0
290
     0
174
     0
 93
       13
 44
0.0
173
     0
291
     1
 45
0.0
1001
ACAD
1000
AcDbSavedByObjectVersion
1070
     0
1000
AcDbSavedByObjectVersion
1070
     0
1000
AcDbSavedByObjectVersion
1070
     0
1000
AcDbSavedByObjectVersion
1070
     0
1000
AcDbSavedByObjectVersion
1070
     0
1000
AcDbSavedByObjectVersion
1070
     0
1000
AcDbSavedByObjectVersion
1070
     0
1000
AcDbSavedByObjectVersion
1070
     0
  0
VISUALSTYLE
  5
986
102
{ACAD_REACTORS
330
982
102
}
330
982
100
AcDbVisualStyle
  2
GouraudWithEdges
 70
     3
 71
     2
 72
     2
 73
     1
 90
        2
 40
-0.6
 41
30.0
 62
     5
 63
     7
 74
     1
 91
        4
 64
     7
 65
   257
 75
     1
175
     1
 42
1.0
 92
        0
 66
   257
 43
1.0
 76
     1
 77
     6
 78
     2
 67
     7
 79
     5
170
     0
171
     0
290
     0
174
     0
 93
       13
 44
0.0
173
     0
291
     1
 45
0.0
1001
ACAD
1000
AcDbSavedByObjectVersion
1070
     0
1000
AcDbSavedByObjectVersion
1070
     0
1000
AcDbSavedByObjectVersion
1070
     0
1000
AcDbSavedByObjectVersion
1070
     0
1000
AcDbSavedByObjectVersion
1070
     0
1000
AcDbSavedByObjectVersion
1070
     0
1000
AcDbSavedByObjectVersion
1070
     0
1000
AcDbSavedByObjectVersion
1070
     0
  0
VISUALSTYLE
  5
990
102
{ACAD_REACTORS
330
982
102
}
330
982
100
AcDbVisualStyle
  2
Linepattern
 70
    14
 71
     2
 72
     2
 73
     0
 90
        0
 40
-0.6
 41
-30.0
 62
     5
 63
     7
 74
     1
 91
        4
 64
     7
 65
   257
 75
     7
175
     7
 42
1.0
 92
        8
 66
     7
 43
1.0
 76
     1
 77
     6
 78
     2
 67
     7
 79
     5
170
     0
171
     0
290
     0
174
     0
 93
        1
 44
0.0
173
     0
291
     1
 45
0.0
1001
ACAD
1000
AcDbSavedByObjectVersion
1070
     0
1000
AcDbSavedByObjectVersion
1070
     0
1000
AcDbSavedByObjectVersion
1070
     0
1000
AcDbSavedByObjectVersion
1070
     0
1000
AcDbSavedByObjectVersion
1070
     0
1000
AcDbSavedByObjectVersion
1070
     0
1000
AcDbSavedByObjectVersion
1070
     0
1000
AcDbSavedByObjectVersion
1070
     0
  0
VISUALSTYLE
  5
98C
102
{ACAD_REACTORS
330
982
102
}
330
982
100
AcDbVisualStyle
  2
Realistic
 70
     8
 71
     2
 72
     2
 73
     0
 90
        0
 40
-0.6
 41
-30.0
 62
     5
 63
     7
 74
     1
 91
        0
 64
     7
 65
   257
 75
     1
175
     1
 42
1.0
 92
        8
 66
     8
 43
1.0
 76
     1
 77
     6
 78
     2
 67
     7
 79
     5
170
     0
171
     0
290
     0
174
     0
 93
       13
 44
0.0
173
     0
291
     0
 45
0.0
1001
ACAD
1000
AcDbSavedByObjectVersion
1070
     0
1000
AcDbSavedByObjectVersion
1070
     0
1000
AcDbSavedByObjectVersion
1070
     0
1000
AcDbSavedByObjectVersion
1070
     0
1000
AcDbSavedByObjectVersion
1070
     0
1000
AcDbSavedByObjectVersion
1070
     0
1000
AcDbSavedByObjectVersion
1070
     0
1000
AcDbSavedByObjectVersion
1070
     0
  0
VISUALSTYLE
  5
98F
102
{ACAD_REACTORS
330
982
102
}
330
982
100
AcDbVisualStyle
  2
Thicken
 70
    13
 71
     2
 72
     2
 73
     0
 90
        0
 40
-0.6
 41
-30.0
 62
     5
 63
     7
 74
     1
 91
        4
 64
     7
 65
   257
 75
     1
175
     1
 42
1.0
 92
       12
 66
     7
 43
1.0
 76
     1
 77
     6
 78
     2
 67
     7
 79
     5
170
     0
171
     0
290
     0
174
     0
 93
        1
 44
0.0
173
     0
291
     1
 45
0.0
1001
ACAD
1000
AcDbSavedByObjectVersion
1070
     0
1000
AcDbSavedByObjectVersion
1070
     0
1000
AcDbSavedByObjectVersion
1070
     0
1000
AcDbSavedByObjectVersion
1070
     0
1000
AcDbSavedByObjectVersion
1070
     0
1000
AcDbSavedByObjectVersion
1070
     0
1000
AcDbSavedByObjectVersion
1070
     0
1000
AcDbSavedByObjectVersion
1070
     0
  0
DICTIONARYVAR
  5
A5A
102
{ACAD_REACTORS
330
A57
102
}
330
A57
100
DictionaryVariables
280
     0
  1
1:1
  0
DICTIONARYVAR
  5
A59
102
{ACAD_REACTORS
330
A57
102
}
330
A57
100
DictionaryVariables
280
     0
  1
STANDARD
  0
DICTIONARYVAR
  5
A58
102
{ACAD_REACTORS
330
A57
102
}
330
A57
100
DictionaryVariables
280
     0
  1
STANDARD
  0
DICTIONARYVAR
  5
A5D
102
{ACAD_REACTORS
330
A57
102
}
330
A57
100
DictionaryVariables
280
     0
  1
1
  0
DICTIONARYVAR
  5
A5C
102
{ACAD_REACTORS
330
A57
102
}
330
A57
100
DictionaryVariables
280
     0
  1
0
  0
DICTIONARYVAR
  5
A5B
102
{ACAD_REACTORS
330
A57
102
}
330
A57
100
DictionaryVariables
280
     0
  1
127
  0
DICTIONARY
  5
DB9
330
21
100
AcDbDictionary
280
     1
281
     1
  3
ACAD_XREC_ROUNDTRIP
360
DBA
  0
DICTIONARY
  5
DB7
330
20
100
AcDbDictionary
280
     1
281
     1
  3
ACAD_XREC_ROUNDTRIP
360
DB8
  0
DICTIONARY
  5
973
330
972
100
AcDbDictionary
280
     1
281
     1
  3
ACAD_XREC_ROUNDTRIP
360
A85
  3
BUMPTILE
360
975
  3
DIFFUSETILE
360
974
  3
OPACITYTILE
360
978
  3
REFLECTIONTILE
360
977
  3
REFRACTIONTILE
360
979
  3
SPECULARTILE
360
976
  0
DICTIONARY
  5
96B
330
96A
100
AcDbDictionary
280
     1
281
     1
  3
ACAD_XREC_ROUNDTRIP
360
A84
  3
BUMPTILE
360
96D
  3
DIFFUSETILE
360
96C
  3
OPACITYTILE
360
970
  3
REFLECTIONTILE
360
96F
  3
REFRACTIONTILE
360
971
  3
SPECULARTILE
360
96E
  0
DICTIONARY
  5
97B
330
97A
100
AcDbDictionary
280
     1
281
     1
  3
ACAD_XREC_ROUNDTRIP
360
A86
  3
BUMPTILE
360
97D
  3
DIFFUSETILE
360
97C
  3
OPACITYTILE
360
980
  3
REFLECTIONTILE
360
97F
  3
REFRACTIONTILE
360
981
  3
SPECULARTILE
360
97E
  0
DICTIONARY
  5
A7A
330
995
100
AcDbDictionary
280
     1
281
     1
  3
ACAD_ROUNDTRIP_2008_TABLESTYLE_CELLSTYLEMAP
360
DB5
  3
ACAD_XREC_ROUNDTRIP
360
DBD
  0
XRECORD
  5
DBA
102
{ACAD_REACTORS
330
DB9
102
}
330
DB9
100
AcDbXrecord
280
     1
102
SHADEPLOT
 70
     0
102
SHADEPLOTRESLEVEL
 70
     2
102
SHADEPLOTCUSTOMDPI
 70
   300
  0
XRECORD
  5
DB8
102
{ACAD_REACTORS
330
DB7
102
}
330
DB7
100
AcDbXrecord
280
     1
102
SHADEPLOT
 70
     0
102
SHADEPLOTRESLEVEL
 70
     2
102
SHADEPLOTCUSTOMDPI
 70
   300
  0
XRECORD
  5
A85
102
{ACAD_REACTORS
330
973
102
}
330
973
100
AcDbXrecord
280
     1
102
MATERIAL
148
0.0
149
0.0
149
0.0
 93
        0
 94
      127
282
     0
 72
     0
 77
     0
171
     0
175
     0
179
     0
273
     0
  0
XRECORD
  5
975
102
{ACAD_REACTORS
330
973
102
}
330
973
100
AcDbXrecord
280
     1
270
     1
271
     1
  0
XRECORD
  5
974
102
{ACAD_REACTORS
330
973
102
}
330
973
100
AcDbXrecord
280
     1
270
     1
271
     1
  0
XRECORD
  5
978
102
{ACAD_REACTORS
330
973
102
}
330
973
100
AcDbXrecord
280
     1
270
     1
271
     1
  0
XRECORD
  5
977
102
{ACAD_REACTORS
330
973
102
}
330
973
100
AcDbXrecord
280
     1
270
     1
271
     1
  0
XRECORD
  5
979
102
{ACAD_REACTORS
330
973
102
}
330
973
100
AcDbXrecord
280
     1
270
     1
271
     1
  0
XRECORD
  5
976
102
{ACAD_REACTORS
330
973
102
}
330
973
100
AcDbXrecord
280
     1
270
     1
271
     1
  0
XRECORD
  5
A84
102
{ACAD_REACTORS
330
96B
102
}
330
96B
100
AcDbXrecord
280
     1
102
MATERIAL
148
0.0
149
0.0
149
0.0
 93
        0
 94
      127
282
     0
 72
     0
 77
     0
171
     0
175
     0
179
     0
273
     0
  0
XRECORD
  5
96D
102
{ACAD_REACTORS
330
96B
102
}
330
96B
100
AcDbXrecord
280
     1
270
     1
271
     1
  0
XRECORD
  5
96C
102
{ACAD_REACTORS
330
96B
102
}
330
96B
100
AcDbXrecord
280
     1
270
     1
271
     1
  0
XRECORD
  5
970
102
{ACAD_REACTORS
330
96B
102
}
330
96B
100
AcDbXrecord
280
     1
270
     1
271
     1
  0
XRECORD
  5
96F
102
{ACAD_REACTORS
330
96B
102
}
330
96B
100
AcDbXrecord
280
     1
270
     1
271
     1
  0
XRECORD
  5
971
102
{ACAD_REACTORS
330
96B
102
}
330
96B
100
AcDbXrecord
280
     1
270
     1
271
     1
  0
XRECORD
  5
96E
102
{ACAD_REACTORS
330
96B
102
}
330
96B
100
AcDbXrecord
280
     1
270
     1
271
     1
  0
XRECORD
  5
A86
102
{ACAD_REACTORS
330
97B
102
}
330
97B
100
AcDbXrecord
280
     1
102
MATERIAL
148
0.0
149
0.0
149
0.0
 93
        0
 94
      127
282
     0
 72
     0
 77
     0
171
     0
175
     0
179
     0
273
     0
  0
XRECORD
  5
97D
102
{ACAD_REACTORS
330
97B
102
}
330
97B
100
AcDbXrecord
280
     1
270
     1
271
     1
  0
XRECORD
  5
97C
102
{ACAD_REACTORS
330
97B
102
}
330
97B
100
AcDbXrecord
280
     1
270
     1
271
     1
  0
XRECORD
  5
980
102
{ACAD_REACTORS
330
97B
102
}
330
97B
100
AcDbXrecord
280
     1
270
     1
271
     1
  0
XRECORD
  5
97F
102
{ACAD_REACTORS
330
97B
102
}
330
97B
100
AcDbXrecord
280
     1
270
     1
271
     1
  0
XRECORD
  5
981
102
{ACAD_REACTORS
330
97B
102
}
330
97B
100
AcDbXrecord
280
     1
270
     1
271
     1
  0
XRECORD
  5
97E
102
{ACAD_REACTORS
330
97B
102
}
330
97B
100
AcDbXrecord
280
     1
270
     1
271
     1
  0
CELLSTYLEMAP
  5
DB5
102
{ACAD_REACTORS
330
A7A
102
}
330
A7A
100
AcDbCellStyleMap
 90
        3
300
CELLSTYLE
  1
TABLEFORMAT_BEGIN
 90
        5
170
     1
 91
        0
 92
    32768
 62
   257
 93
        1
300
CONTENTFORMAT
  1
CONTENTFORMAT_BEGIN
 90
        0
 91
        0
 92
      512
 93
        0
300

 40
0.0
140
1.0
 94
        5
 62
     0
340
17
144
6.0
309
CONTENTFORMAT_END
171
     1
301
MARGIN
  1
CELLMARGIN_BEGIN
 40
1.5
 40
1.5
 40
1.5
 40
1.5
 40
0.18
 40
0.18
309
CELLMARGIN_END
 94
        6
 95
        1
302
GRIDFORMAT
  1
GRIDFORMAT_BEGIN
 90
        0
 91
        1
 62
     0
 92
       -2
340
0
 93
        0
 40
1.125
309
GRIDFORMAT_END
 95
        2
302
GRIDFORMAT
  1
GRIDFORMAT_BEGIN
 90
        0
 91
        1
 62
     0
 92
       -2
340
0
 93
        0
 40
1.125
309
GRIDFORMAT_END
 95
        4
302
GRIDFORMAT
  1
GRIDFORMAT_BEGIN
 90
        0
 91
        1
 62
     0
 92
       -2
340
0
 93
        0
 40
1.125
309
GRIDFORMAT_END
 95
        8
302
GRIDFORMAT
  1
GRIDFORMAT_BEGIN
 90
        0
 91
        1
 62
     0
 92
       -2
340
0
 93
        0
 40
1.125
309
GRIDFORMAT_END
 95
       16
302
GRIDFORMAT
  1
GRIDFORMAT_BEGIN
 90
        0
 91
        1
 62
     0
 92
       -2
340
0
 93
        0
 40
1.125
309
GRIDFORMAT_END
 95
       32
302
GRIDFORMAT
  1
GRIDFORMAT_BEGIN
 90
        0
 91
        1
 62
     0
 92
       -2
340
0
 93
        0
 40
1.125
309
GRIDFORMAT_END
309
TABLEFORMAT_END
  1
CELLSTYLE_BEGIN
 90
        1
 91
        1
300
_TITLE
309
CELLSTYLE_END
300
CELLSTYLE
  1
TABLEFORMAT_BEGIN
 90
        5
170
     1
 91
        0
 92
        0
 62
   257
 93
        1
300
CONTENTFORMAT
  1
CONTENTFORMAT_BEGIN
 90
        0
 91
        0
 92
      512
 93
        0
300

 40
0.0
140
1.0
 94
        5
 62
     0
340
17
144
4.5
309
CONTENTFORMAT_END
171
     1
301
MARGIN
  1
CELLMARGIN_BEGIN
 40
1.5
 40
1.5
 40
1.5
 40
1.5
 40
0.18
 40
0.18
309
CELLMARGIN_END
 94
        6
 95
        1
302
GRIDFORMAT
  1
GRIDFORMAT_BEGIN
 90
        0
 91
        1
 62
     0
 92
       -2
340
0
 93
        0
 40
1.125
309
GRIDFORMAT_END
 95
        2
302
GRIDFORMAT
  1
GRIDFORMAT_BEGIN
 90
        0
 91
        1
 62
     0
 92
       -2
340
0
 93
        0
 40
1.125
309
GRIDFORMAT_END
 95
        4
302
GRIDFORMAT
  1
GRIDFORMAT_BEGIN
 90
        0
 91
        1
 62
     0
 92
       -2
340
0
 93
        0
 40
1.125
309
GRIDFORMAT_END
 95
        8
302
GRIDFORMAT
  1
GRIDFORMAT_BEGIN
 90
        0
 91
        1
 62
     0
 92
       -2
340
0
 93
        0
 40
1.125
309
GRIDFORMAT_END
 95
       16
302
GRIDFORMAT
  1
GRIDFORMAT_BEGIN
 90
        0
 91
        1
 62
     0
 92
       -2
340
0
 93
        0
 40
1.125
309
GRIDFORMAT_END
 95
       32
302
GRIDFORMAT
  1
GRIDFORMAT_BEGIN
 90
        0
 91
        1
 62
     0
 92
       -2
340
0
 93
        0
 40
1.125
309
GRIDFORMAT_END
309
TABLEFORMAT_END
  1
CELLSTYLE_BEGIN
 90
        2
 91
        1
300
_HEADER
309
CELLSTYLE_END
300
CELLSTYLE
  1
TABLEFORMAT_BEGIN
 90
        5
170
     1
 91
        0
 92
        0
 62
   257
 93
        1
300
CONTENTFORMAT
  1
CONTENTFORMAT_BEGIN
 90
        0
 91
        0
 92
      512
 93
        0
300

 40
0.0
140
1.0
 94
        2
 62
     0
340
17
144
4.5
309
CONTENTFORMAT_END
171
     1
301
MARGIN
  1
CELLMARGIN_BEGIN
 40
1.5
 40
1.5
 40
1.5
 40
1.5
 40
0.18
 40
0.18
309
CELLMARGIN_END
 94
        6
 95
        1
302
GRIDFORMAT
  1
GRIDFORMAT_BEGIN
 90
        0
 91
        1
 62
     0
 92
       -2
340
0
 93
        0
 40
1.125
309
GRIDFORMAT_END
 95
        2
302
GRIDFORMAT
  1
GRIDFORMAT_BEGIN
 90
        0
 91
        1
 62
     0
 92
       -2
340
0
 93
        0
 40
1.125
309
GRIDFORMAT_END
 95
        4
302
GRIDFORMAT
  1
GRIDFORMAT_BEGIN
 90
        0
 91
        1
 62
     0
 92
       -2
340
0
 93
        0
 40
1.125
309
GRIDFORMAT_END
 95
        8
302
GRIDFORMAT
  1
GRIDFORMAT_BEGIN
 90
        0
 91
        1
 62
     0
 92
       -2
340
0
 93
        0
 40
1.125
309
GRIDFORMAT_END
 95
       16
302
GRIDFORMAT
  1
GRIDFORMAT_BEGIN
 90
        0
 91
        1
 62
     0
 92
       -2
340
0
 93
        0
 40
1.125
309
GRIDFORMAT_END
 95
       32
302
GRIDFORMAT
  1
GRIDFORMAT_BEGIN
 90
        0
 91
        1
 62
     0
 92
       -2
340
0
 93
        0
 40
1.125
309
GRIDFORMAT_END
309
TABLEFORMAT_END
  1
CELLSTYLE_BEGIN
 90
        3
 91
        2
300
_DATA
309
CELLSTYLE_END
  0
XRECORD
  5
DBD
102
{ACAD_REACTORS
330
A7A
102
}
330
A7A
100
AcDbXrecord
280
     1
102
ACAD_ROUNDTRIP_PRE2007_TABLESTYLE
 90
      512
 91
        0
  1

 92
      512
 93
        0
  2

 94
      512
 95
        0
  3

  0
ENDSEC
  0
EOF
